  0
SECTION
  2
HEADER
  9
$ACADVER
  1
AC1014
  9
$ACADMAINTVER
 70
     9
  9
$DWGCODEPAGE
  3
ANSI_1252
  9
$INSBASE
 10
0.0
 20
0.0
 30
0.0
  9
$EXTMIN
 10
-86.38230190524053
 20
-40.59622568226467
 30
-0.0015258207003583
  9
$EXTMAX
 10
310.9798758039924
 20
137.3838080827919
 30
0.0000000349246037
  9
$LIMMIN
 10
0.0
 20
0.0
  9
$LIMMAX
 10
12.0
 20
9.0
  9
$ORTHOMODE
 70
     1
  9
$REGENMODE
 70
     1
  9
$FILLMODE
 70
     1
  9
$QTEXTMODE
 70
     0
  9
$MIRRTEXT
 70
     1
  9
$DRAGMODE
 70
     2
  9
$LTSCALE
 40
1.0
  9
$OSMODE
 70
    55
  9
$ATTMODE
 70
     1
  9
$TEXTSIZE
 40
0.2
  9
$TRACEWID
 40
0.05
  9
$TEXTSTYLE
  7
STANDARD
  9
$CLAYER
  8
0
  9
$CELTYPE
  6
BYLAYER
  9
$CECOLOR
 62
   256
  9
$CELTSCALE
 40
1.0
  9
$DELOBJ
 70
     1
  9
$DISPSILH
 70
     0
  9
$DIMSCALE
 40
15.0
  9
$DIMASZ
 40
0.18
  9
$DIMEXO
 40
0.0625
  9
$DIMDLI
 40
0.38
  9
$DIMRND
 40
0.0
  9
$DIMDLE
 40
0.0
  9
$DIMEXE
 40
0.18
  9
$DIMTP
 40
0.0
  9
$DIMTM
 40
0.0
  9
$DIMTXT
 40
0.18
  9
$DIMCEN
 40
0.09
  9
$DIMTSZ
 40
0.0
  9
$DIMTOL
 70
     0
  9
$DIMLIM
 70
     0
  9
$DIMTIH
 70
     1
  9
$DIMTOH
 70
     1
  9
$DIMSE1
 70
     0
  9
$DIMSE2
 70
     0
  9
$DIMTAD
 70
     0
  9
$DIMZIN
 70
     0
  9
$DIMBLK
  1

  9
$DIMASO
 70
     1
  9
$DIMSHO
 70
     1
  9
$DIMPOST
  1

  9
$DIMAPOST
  1

  9
$DIMALT
 70
     1
  9
$DIMALTD
 70
     2
  9
$DIMALTF
 40
0.0394
  9
$DIMLFAC
 40
1.0
  9
$DIMTOFL
 70
     0
  9
$DIMTVP
 40
0.0
  9
$DIMTIX
 70
     0
  9
$DIMSOXD
 70
     0
  9
$DIMSAH
 70
     0
  9
$DIMBLK1
  1

  9
$DIMBLK2
  1

  9
$DIMSTYLE
  2
STANDARD
  9
$DIMCLRD
 70
     0
  9
$DIMCLRE
 70
     0
  9
$DIMCLRT
 70
     0
  9
$DIMTFAC
 40
1.0
  9
$DIMGAP
 40
0.09
  9
$DIMJUST
 70
     0
  9
$DIMSD1
 70
     0
  9
$DIMSD2
 70
     0
  9
$DIMTOLJ
 70
     1
  9
$DIMTZIN
 70
     0
  9
$DIMALTZ
 70
     0
  9
$DIMALTTZ
 70
     0
  9
$DIMFIT
 70
     3
  9
$DIMUPT
 70
     0
  9
$DIMUNIT
 70
     2
  9
$DIMDEC
 70
     1
  9
$DIMTDEC
 70
     1
  9
$DIMALTU
 70
     2
  9
$DIMALTTD
 70
     2
  9
$DIMTXSTY
  7
STANDARD
  9
$DIMAUNIT
 70
     0
  9
$LUNITS
 70
     2
  9
$LUPREC
 70
     1
  9
$SKETCHINC
 40
0.1
  9
$FILLETRAD
 40
0.5
  9
$AUNITS
 70
     0
  9
$AUPREC
 70
     0
  9
$MENU
  1
.
  9
$ELEVATION
 40
0.0
  9
$PELEVATION
 40
0.0
  9
$THICKNESS
 40
0.0
  9
$LIMCHECK
 70
     0
  9
$BLIPMODE
 70
     0
  9
$CHAMFERA
 40
0.5
  9
$CHAMFERB
 40
0.5
  9
$CHAMFERC
 40
1.0
  9
$CHAMFERD
 40
0.0
  9
$SKPOLY
 70
     0
  9
$TDCREATE
 40
2452851.404667060
  9
$TDUPDATE
 40
2452986.323236574
  9
$TDINDWG
 40
0.0968787616
  9
$TDUSRTIMER
 40
0.0968786458
  9
$USRTIMER
 70
     1
  9
$ANGBASE
 50
0.0
  9
$ANGDIR
 70
     0
  9
$PDMODE
 70
     0
  9
$PDSIZE
 40
0.0
  9
$PLINEWID
 40
0.0
  9
$COORDS
 70
     1
  9
$SPLFRAME
 70
     0
  9
$SPLINETYPE
 70
     6
  9
$SPLINESEGS
 70
     8
  9
$ATTDIA
 70
     0
  9
$ATTREQ
 70
     1
  9
$HANDLING
 70
 22529
  9
$HANDSEED
  5
668
  9
$SURFTAB1
 70
     6
  9
$SURFTAB2
 70
     6
  9
$SURFTYPE
 70
     6
  9
$SURFU
 70
     6
  9
$SURFV
 70
     6
  9
$UCSNAME
  2

  9
$UCSORG
 10
0.0
 20
0.0
 30
0.0
  9
$UCSXDIR
 10
1.0
 20
0.0
 30
0.0
  9
$UCSYDIR
 10
0.0
 20
1.0
 30
0.0
  9
$PUCSNAME
  2

  9
$PUCSORG
 10
0.0
 20
0.0
 30
0.0
  9
$PUCSXDIR
 10
1.0
 20
0.0
 30
0.0
  9
$PUCSYDIR
 10
0.0
 20
1.0
 30
0.0
  9
$USERI1
 70
     0
  9
$USERI2
 70
     0
  9
$USERI3
 70
     0
  9
$USERI4
 70
     0
  9
$USERI5
 70
     0
  9
$USERR1
 40
0.0
  9
$USERR2
 40
0.0
  9
$USERR3
 40
0.0
  9
$USERR4
 40
0.0
  9
$USERR5
 40
0.0
  9
$WORLDVIEW
 70
     1
  9
$SHADEDGE
 70
     3
  9
$SHADEDIF
 70
    70
  9
$TILEMODE
 70
     1
  9
$MAXACTVP
 70
    48
  9
$PINSBASE
 10
0.0
 20
0.0
 30
0.0
  9
$PLIMCHECK
 70
     0
  9
$PEXTMIN
 10
1.000000000000000E+20
 20
1.000000000000000E+20
 30
1.000000000000000E+20
  9
$PEXTMAX
 10
-1.000000000000000E+20
 20
-1.000000000000000E+20
 30
-1.000000000000000E+20
  9
$PLIMMIN
 10
0.0
 20
0.0
  9
$PLIMMAX
 10
12.0
 20
9.0
  9
$UNITMODE
 70
     0
  9
$VISRETAIN
 70
     1
  9
$PLINEGEN
 70
     0
  9
$PSLTSCALE
 70
     1
  9
$TREEDEPTH
 70
  3020
  9
$PICKSTYLE
 70
     1
  9
$CMLSTYLE
  2
STANDARD
  9
$CMLJUST
 70
     0
  9
$CMLSCALE
 40
1.0
  9
$PROXYGRAPHICS
 70
     1
  9
$MEASUREMENT
 70
     0
  0
ENDSEC
  0
SECTION
  2
CLASSES
  0
CLASS
  1
ACDBDICTIONARYWDFLT
  2
AcDbDictionaryWithDefault
  3
AutoCAD 2000
 90
        0
280
     0
281
     0
  0
CLASS
  1
ACDBPLACEHOLDER
  2
AcDbPlaceHolder
  3
AutoCAD 2000
 90
        0
280
     0
281
     0
  0
CLASS
  1
LAYOUT
  2
AcDbLayout
  3
AutoCAD 2000
 90
        0
280
     0
281
     0
  0
CLASS
  1
DICTIONARYVAR
  2
AcDbDictionaryVar
  3
AutoCAD 2000
 90
        0
280
     0
281
     0
  0
CLASS
  1
LONG_TRANSACTION
  2
AcDbLongTransaction
  3
AutoCAD 2000
 90
        0
280
     0
281
     0
  0
CLASS
  1
LWPOLYLINE
  2
AcDbPolyline
  3
AutoCAD 2000
 90
        0
280
     0
281
     1
  0
CLASS
  1
HATCH
  2
AcDbHatch
  3
AutoCAD 2000
 90
        0
280
     0
281
     1
  0
CLASS
  1
XRECORD
  2
AcDbXrecord
  3
AutoCAD 2000
 90
        0
280
     0
281
     0
  0
CLASS
  1
DIMASSOC
  2
AcDbDimAssoc
  3
"AcDbDimAssoc|Product Desc:     AcDim ARX App For Dimension|Company:          Autodesk, Inc.|WEB Address:      www.autodesk.com"
 90
        0
280
     0
281
     0
  0
CLASS
  1
LONG_TRANSACTION
  2
AcDbLongTransaction
  3
AutoCAD 2000
 90
        0
280
     0
281
     0
  0
CLASS
  1
LWPOLYLINE
  2
AcDbPolyline
  3
AutoCAD 2000
 90
        0
280
     0
281
     1
  0
CLASS
  1
HATCH
  2
AcDbHatch
  3
AutoCAD 2000
 90
        0
280
     0
281
     1
  0
CLASS
  1
XRECORD
  2
AcDbXrecord
  3
AutoCAD 2000
 90
        0
280
     0
281
     0
  0
CLASS
  1
LONG_TRANSACTION
  2
AcDbLongTransaction
  3
AutoCAD 2000
 90
        0
280
     0
281
     0
  0
CLASS
  1
LWPOLYLINE
  2
AcDbPolyline
  3
AutoCAD 2000
 90
        0
280
     0
281
     1
  0
CLASS
  1
HATCH
  2
AcDbHatch
  3
AutoCAD 2000
 90
        0
280
     0
281
     1
  0
CLASS
  1
XRECORD
  2
AcDbXrecord
  3
AutoCAD 2000
 90
        0
280
     0
281
     0
  0
CLASS
  1
LONG_TRANSACTION
  2
AcDbLongTransaction
  3
AutoCAD 2000
 90
        0
280
     0
281
     0
  0
CLASS
  1
LWPOLYLINE
  2
AcDbPolyline
  3
AutoCAD 2000
 90
        0
280
     0
281
     1
  0
CLASS
  1
HATCH
  2
AcDbHatch
  3
AutoCAD 2000
 90
        0
280
     0
281
     1
  0
CLASS
  1
XRECORD
  2
AcDbXrecord
  3
AutoCAD 2000
 90
        0
280
     0
281
     0
  0
ENDSEC
  0
SECTION
  2
TABLES
  0
TABLE
  2
VPORT
  5
8
330
0
100
AcDbSymbolTable
 70
     3
  0
VPORT
  5
63D
330
8
100
AcDbSymbolTableRecord
100
AcDbViewportTableRecord
  2
*ACTIVE
 70
     0
 10
0.0
 20
0.0
 11
1.0
 21
1.0
 12
52.54823174760861
 22
13.98187977725334
 13
0.0
 23
0.0
 14
0.5
 24
0.5
 15
0.5
 25
0.5
 16
0.0
 26
0.0
 36
1.0
 17
0.0
 27
0.0
 37
0.0
 40
321.2619463944554
 41
1.741635687732341
 42
50.0
 43
0.0
 44
0.0
 50
0.0
 51
0.0
 71
     0
 72
   100
 73
     1
 74
     2
 75
     0
 76
     0
 77
     0
 78
     0
  0
ENDTAB
  0
TABLE
  2
LTYPE
  5
5
330
0
100
AcDbSymbolTable
 70
     1
  0
LTYPE
  5
14
330
5
100
AcDbSymbolTableRecord
100
AcDbLinetypeTableRecord
  2
BYBLOCK
 70
     0
  3

 72
    65
 73
     0
 40
0.0
  0
LTYPE
  5
15
330
5
100
AcDbSymbolTableRecord
100
AcDbLinetypeTableRecord
  2
BYLAYER
 70
     0
  3

 72
    65
 73
     0
 40
0.0
  0
LTYPE
  5
16
330
5
100
AcDbSymbolTableRecord
100
AcDbLinetypeTableRecord
  2
CONTINUOUS
 70
     0
  3
Solid line
 72
    65
 73
     0
 40
0.0
  0
ENDTAB
  0
TABLE
  2
LAYER
  5
2
330
0
100
AcDbSymbolTable
 70
     5
  0
LAYER
  5
10
330
2
100
AcDbSymbolTableRecord
100
AcDbLayerTableRecord
  2
0
 70
     0
 62
     7
  6
CONTINUOUS
  0
LAYER
  5
9A
330
2
100
AcDbSymbolTableRecord
100
AcDbLayerTableRecord
  2
IFS_FIBER_OPTICS
 70
     0
 62
     7
  6
CONTINUOUS
  0
LAYER
  5
9B
330
2
100
AcDbSymbolTableRecord
100
AcDbLayerTableRecord
  2
POWER_LED
 70
     0
 62
     1
  6
CONTINUOUS
  0
LAYER
  5
221
330
2
100
AcDbSymbolTableRecord
100
AcDbLayerTableRecord
  2
DEFPOINTS
 70
     0
 62
     7
  6
CONTINUOUS
  0
LAYER
  5
525
330
2
100
AcDbSymbolTableRecord
100
AcDbLayerTableRecord
  2
VORDERGRUND
 70
     0
 62
   160
  6
CONTINUOUS
  0
ENDTAB
  0
TABLE
  2
STYLE
  5
3
330
0
100
AcDbSymbolTable
 70
     1
  0
STYLE
  5
11
330
3
100
AcDbSymbolTableRecord
100
AcDbTextStyleTableRecord
  2
STANDARD
 70
     0
 40
0.0
 41
1.0
 50
0.0
 71
     0
 42
0.2
  3
txt
  4

  0
ENDTAB
  0
TABLE
  2
VIEW
  5
6
330
0
100
AcDbSymbolTable
 70
     0
  0
ENDTAB
  0
TABLE
  2
UCS
  5
7
330
0
100
AcDbSymbolTable
 70
     0
  0
ENDTAB
  0
TABLE
  2
APPID
  5
9
330
0
100
AcDbSymbolTable
 70
     2
  0
APPID
  5
12
330
9
100
AcDbSymbolTableRecord
100
AcDbRegAppTableRecord
  2
ACAD
 70
     0
  0
APPID
  5
1EE
330
9
100
AcDbSymbolTableRecord
100
AcDbRegAppTableRecord
  2
CONTENTBLOCKICON
 70
     0
  0
ENDTAB
  0
TABLE
  2
DIMSTYLE
  5
A
330
0
100
AcDbSymbolTable
 70
     1
  0
DIMSTYLE
105
27
102
{ACAD_REACTORS
330
2D6
330
30C
330
309
330
4D7
330
50B
102
}
330
A
100
AcDbSymbolTableRecord
100
AcDbDimStyleTableRecord
  2
STANDARD
 70
     0
  3

  4

  5

  6

  7

 40
15.0
 41
0.18
 42
0.0625
 43
0.38
 44
0.18
 45
0.0
 46
0.0
 47
0.0
 48
0.0
140
0.18
141
0.09
142
0.0
143
0.0394
144
1.0
145
0.0
146
1.0
147
0.09
 71
     0
 72
     0
 73
     1
 74
     1
 75
     0
 76
     0
 77
     0
 78
     0
170
     1
171
     2
172
     0
173
     0
174
     0
175
     0
176
     0
177
     0
178
     0
270
     2
271
     1
272
     1
273
     2
274
     2
340
11
275
     0
280
     0
281
     0
282
     0
283
     1
284
     0
285
     0
286
     0
287
     3
288
     0
  0
ENDTAB
  0
TABLE
  2
BLOCK_RECORD
  5
1
330
0
100
AcDbSymbolTable
 70
    24
  0
BLOCK_RECORD
  5
1F
102
{ACAD_XDICTIONARY
360
1A3
102
}
330
1
100
AcDbSymbolTableRecord
100
AcDbBlockTableRecord
  2
*MODEL_SPACE
  0
BLOCK_RECORD
  5
1B
102
{ACAD_XDICTIONARY
360
1A5
102
}
330
1
100
AcDbSymbolTableRecord
100
AcDbBlockTableRecord
  2
*PAPER_SPACE
  0
BLOCK_RECORD
  5
2B
330
1
100
AcDbSymbolTableRecord
100
AcDbBlockTableRecord
  2
ST_CONN
1001
ACAD
1000
DesignCenter Data
1002
{
1070
     1
1070
     1
1002
}
1001
CONTENTBLOCKICON
1071
        0
1004
2800000020000000200000000100080000000000000400000000000000000000000000000000000000000000000080000080000000808000800000008000800080800000C0C0C000C0DCC000F0CAA6000020400000206000002080000020A0000020C0000020E00000400000004020000040400000406000004080000040A0
1004
000040C0000040E00000600000006020000060400000606000006080000060A0000060C0000060E00000800000008020000080400000806000008080000080A0000080C0000080E00000A0000000A0200000A0400000A0600000A0800000A0A00000A0C00000A0E00000C0000000C0200000C0400000C0600000C0800000C0
1004
A00000C0C00000C0E00000E0000000E0200000E0400000E0600000E0800000E0A00000E0C00000E0E00040000000400020004000400040006000400080004000A0004000C0004000E00040200000402020004020400040206000402080004020A0004020C0004020E000404000004040200040404000404060004040800040
1004
40A0004040C0004040E00040600000406020004060400040606000406080004060A0004060C0004060E00040800000408020004080400040806000408080004080A0004080C0004080E00040A0000040A0200040A0400040A0600040A0800040A0A00040A0C00040A0E00040C0000040C0200040C0400040C0600040C08000
1004
40C0A00040C0C00040C0E00040E0000040E0200040E0400040E0600040E0800040E0A00040E0C00040E0E00080000000800020008000400080006000800080008000A0008000C0008000E00080200000802020008020400080206000802080008020A0008020C0008020E00080400000804020008040400080406000804080
1004
008040A0008040C0008040E00080600000806020008060400080606000806080008060A0008060C0008060E00080800000808020008080400080806000808080008080A0008080C0008080E00080A0000080A0200080A0400080A0600080A0800080A0A00080A0C00080A0E00080C0000080C0200080C0400080C0600080C0
1004
800080C0A00080C0C00080C0E00080E0000080E0200080E0400080E0600080E0800080E0A00080E0C00080E0E000C0000000C0002000C0004000C0006000C0008000C000A000C000C000C000E000C0200000C0202000C0204000C0206000C0208000C020A000C020C000C020E000C0400000C0402000C0404000C0406000C0
1004
408000C040A000C040C000C040E000C0600000C0602000C0604000C0606000C0608000C060A000C060C000C060E000C0800000C0802000C0804000C0806000C0808000C080A000C080C000C080E000C0A00000C0A02000C0A04000C0A06000C0A08000C0A0A000C0A0C000C0A0E000C0C00000C0C02000C0C04000C0C06000
1004
C0C08000C0C0A000F0FBFF00A4A0A000808080000000FF0000FF000000FFFF00FF000000FF00FF00FFFF0000FFFFFF00FFFFFFFFFFFFFFFFFFFFFFFFFFFFFFFFFFFFFFFFFFFFFFFFFFFFFFFFFFFFFFFFFFFFFFFFFFFFFFFFFFFFFFFFFFFFFFFFFFFFFFFFFFFFFFFFFFFFFFFFFFFFFFFFFFFFFFFFFFFFFFFFFFFFFFFFFFFFFF
1004
FFFFFFFFFFFFFFFFFFFFFFFFFFFFFFFFFFFFFFFFFFFFFFFFFFFFFFFFFFFFFFFFFFFFFFFFFFFFFFFFFFFFFFFFFFFFFFFFFFFFFFFFFFFFFFFFFFFFFFFFFFFFFFFFFFFFFFFFFFFFFFFFFFFFFFFFFFFFFFFFFFFFFFFFFFFFFFFFFFFFFFFFFFFFFFFFFFFFFFFFFFFFFFFFFFFFFFFFFFFFFFFFFFFFFFFFFFFFFFFFFFFFFFFFFFFFFF
1004
FFFFFFFFFFFFFFFFFF0000FFFFFFFFFFFFFFFF000000000000000000000000000000000000000000000000000000000000FFFF00FFFFFFFFFFFFFFFFFFFFFFFFFFFFFFFFFFFFFFFFFFFFFFFFFFFFFFFF00FFFF00FFFFFFFFFFFFFFFFFFFFFFFFFFFFFFFFFFFFFFFFFFFFFFFFFFFFFFFF00FFFF00FFFFFFFFFFFFFFFFFFFFFF
1004
FFFFFFFFFFFFFFFFFFFFFFFFFFFFFFFFFF00FFFF00FFFFFFFFFFFFFFFFFFFFFFFFFFFFFFFFFFFFFFFFFFFFFFFFFFFFFFFF00FFFF00FFFFFFFFFFFFFFFFFFFFFFFFFFFFFFFFFFFFFFFFFFFFFFFFFFFFFFFF00FFFF00FFFFFFFFFFFFFFFFFFFFFFFFFFFFFFFFFFFFFFFFFFFFFFFFFFFFFFFF00FFFF00FFFFFFFFFFFFFFFFFFFF
1004
FFFFFFFFFFFFFFFFFFFFFFFFFFFFFFFFFFFF00FFFF00FFFFFFFFFFFFFFFFFFFFFFFFFFFFFFFFFFFFFFFFFFFFFFFFFFFFFFFF00FFFF00FFFFFFFFFFFFFFFFFFFFFFFFFFFFFFFFFFFFFFFFFFFFFFFFFFFFFFFF00FFFF00FFFFFFFFFFFFFFFFFFFFFFFFFFFFFFFFFFFFFFFFFFFFFFFFFFFFFFFF00FFFF00FFFFFFFFFFFFFFFFFF
1004
FFFFFFFFFFFFFFFFFFFFFFFFFFFFFFFFFFFFFF00FFFF00FFFFFFFFFFFFFFFFFFFFFFFFFFFFFFFFFFFFFFFFFFFFFFFFFFFFFFFF00FFFF00FFFFFFFFFFFFFFFFFFFFFFFFFFFFFFFFFFFFFFFFFFFFFFFFFFFFFFFF00FFFF00FFFFFFFFFFFFFFFFFFFFFFFFFFFFFFFFFFFFFFFFFFFFFFFFFFFFFFFF00FFFF00FFFFFFFFFFFFFFFF
1004
FFFFFFFFFFFFFFFFFFFFFFFFFFFFFFFFFFFFFFFF00FFFF00FFFFFFFFFFFFFFFFFFFFFFFFFFFFFFFFFFFFFFFFFFFFFFFFFFFFFFFF00FFFF000000000000000000000000000000000000000000000000000000000000FFFFFFFFFFFFFFFFFFFFFFFFFFFFFFFFFFFFFFFFFFFFFFFF0000FFFFFFFFFFFFFFFFFFFFFFFFFFFFFFFF
1004
FFFFFFFFFFFFFFFFFFFFFFFFFFFFFFFFFFFFFFFFFFFFFFFFFFFFFFFFFFFFFFFFFFFFFFFFFFFFFFFFFFFFFFFFFFFFFFFFFFFFFFFFFFFFFFFFFFFFFFFFFFFFFFFFFFFFFFFFFFFFFFFFFFFFFFFFFFFFFFFFFFFFFFFFFFFFFFFFFFFFFFFFFFFFFFFFFFFFFFFFFFFFFFFFFFFFFFFFFFFFFFFFFFFFFFFFFFFFFFFFFFFFFFFFFFFFFF
1004
FFFFFFFFFFFFFFFFFFFFFFFFFFFFFFFFFFFFFFFFFFFFFFFFFFFFFFFFFFFFFFFFFFFFFFFFFFFFFFFFFFFFFFFFFFFFFFFFFFFFFFFFFFFFFFFF
  0
BLOCK_RECORD
  5
34
330
1
100
AcDbSymbolTableRecord
100
AcDbBlockTableRecord
  2
LARGE_2_PIN
1001
ACAD
1000
DesignCenter Data
1002
{
1070
     1
1070
     1
1002
}
1001
CONTENTBLOCKICON
1071
        0
1004
2800000020000000200000000100080000000000000400000000000000000000000000000000000000000000000080000080000000808000800000008000800080800000C0C0C000C0DCC000F0CAA6000020400000206000002080000020A0000020C0000020E00000400000004020000040400000406000004080000040A0
1004
000040C0000040E00000600000006020000060400000606000006080000060A0000060C0000060E00000800000008020000080400000806000008080000080A0000080C0000080E00000A0000000A0200000A0400000A0600000A0800000A0A00000A0C00000A0E00000C0000000C0200000C0400000C0600000C0800000C0
1004
A00000C0C00000C0E00000E0000000E0200000E0400000E0600000E0800000E0A00000E0C00000E0E00040000000400020004000400040006000400080004000A0004000C0004000E00040200000402020004020400040206000402080004020A0004020C0004020E000404000004040200040404000404060004040800040
1004
40A0004040C0004040E00040600000406020004060400040606000406080004060A0004060C0004060E00040800000408020004080400040806000408080004080A0004080C0004080E00040A0000040A0200040A0400040A0600040A0800040A0A00040A0C00040A0E00040C0000040C0200040C0400040C0600040C08000
1004
40C0A00040C0C00040C0E00040E0000040E0200040E0400040E0600040E0800040E0A00040E0C00040E0E00080000000800020008000400080006000800080008000A0008000C0008000E00080200000802020008020400080206000802080008020A0008020C0008020E00080400000804020008040400080406000804080
1004
008040A0008040C0008040E00080600000806020008060400080606000806080008060A0008060C0008060E00080800000808020008080400080806000808080008080A0008080C0008080E00080A0000080A0200080A0400080A0600080A0800080A0A00080A0C00080A0E00080C0000080C0200080C0400080C0600080C0
1004
800080C0A00080C0C00080C0E00080E0000080E0200080E0400080E0600080E0800080E0A00080E0C00080E0E000C0000000C0002000C0004000C0006000C0008000C000A000C000C000C000E000C0200000C0202000C0204000C0206000C0208000C020A000C020C000C020E000C0400000C0402000C0404000C0406000C0
1004
408000C040A000C040C000C040E000C0600000C0602000C0604000C0606000C0608000C060A000C060C000C060E000C0800000C0802000C0804000C0806000C0808000C080A000C080C000C080E000C0A00000C0A02000C0A04000C0A06000C0A08000C0A0A000C0A0C000C0A0E000C0C00000C0C02000C0C04000C0C06000
1004
C0C08000C0C0A000F0FBFF00A4A0A000808080000000FF0000FF000000FFFF00FF000000FF00FF00FFFF0000FFFFFF00FFFFFFFFFFFFFFFFFFFFFFFFFFFFFFFFFFFFFFFFFFFFFFFFFFFFFFFFFFFFFFFFFFFFFF0000000000000000000000000000000000000000000000000000FFFFFFFFFFFF00FFFFFFFFFFFFFFFFFFFFFF
1004
FFFFFFFFFFFFFFFFFFFFFFFFFF00FFFFFFFFFFFF00FFFFFFFFFFFFFFFFFFFFFFFFFFFF00FFFFFFFFFFFFFFFFFF00FFFFFFFFFFFF00FFFFFFFFFFFFFFFFFFFFFF00FF00FF00FFFFFFFFFFFFFFFF00FFFFFFFFFFFF00FFFFFFFFFFFFFFFFFFFFFFFF00FFFFFF00FFFFFFFFFFFFFF00FFFFFFFFFFFF00FFFFFFFFFFFFFFFFFF00
1004
FF00FF0000FFFF0000FFFFFFFFFF00FFFFFFFFFFFF00FFFFFFFFFFFFFFFFFFFF0000FFFFFF00FFFFFF00FFFFFFFF00FFFFFFFFFFFF00FFFFFFFFFFFFFFFFFF00FFFF00FF00FF00FFFFFF00FFFFFF00FFFFFFFFFFFF00FFFFFFFFFFFFFFFFFFFF00FFFF00FFFFFF000000FFFFFFFF00FFFFFFFFFFFF00FFFFFFFFFFFFFFFFFF
1004
FFFF00FFFF0000FFFF0000FFFFFFFF00FFFFFFFFFFFF00FFFFFFFFFFFFFFFFFFFFFFFF00FFFFFF0000FFFFFFFFFFFF00FFFFFFFFFFFF00FFFFFFFFFFFFFFFFFFFFFFFFFF00FF00FF00FFFFFFFFFFFF00FFFFFFFFFFFF00FFFFFFFFFFFFFFFFFFFFFFFFFFFF00FFFFFFFFFFFFFFFFFF00FFFFFFFFFFFF00FFFFFFFFFFFFFFFF
1004
FFFFFFFFFFFFFFFFFFFFFFFFFFFFFFFF00FFFFFFFFFFFF00FFFFFFFFFFFFFFFFFFFFFFFFFFFFFFFFFFFFFFFFFFFFFFFF00FFFFFFFFFFFF00FFFFFFFFFFFFFFFFFFFFFFFFFFFFFFFFFFFFFFFFFFFFFFFF00FFFFFFFFFFFF00FFFFFFFFFFFFFFFFFFFFFFFFFFFF00FFFFFFFFFFFFFFFFFF00FFFFFFFFFFFF00FFFFFFFFFFFFFF
1004
FFFFFFFF00FF00FF00FFFFFFFFFFFFFFFF00FFFFFFFFFFFF00FFFFFFFFFFFFFFFFFFFFFFFF00FFFFFF00FFFFFFFFFFFFFF00FFFFFFFFFFFF00FFFFFFFFFFFFFFFFFF00FF00FF00FFFFFF0000FFFFFFFFFF00FFFFFFFFFFFF00FFFFFFFFFFFFFFFFFFFF00FFFFFF00FFFFFFFF00FFFFFFFF00FFFFFFFFFFFF00FFFFFFFFFFFF
1004
FFFFFF00FF00FFFFFF0000FFFFFF00FFFFFF00FFFFFFFFFFFF00FFFFFFFFFFFFFFFFFFFF00FF0000FFFFFF00FF00FFFFFFFF00FFFFFFFFFFFF00FFFFFFFFFFFFFFFFFFFFFF00FFFF00FFFFFF00FFFFFFFFFF00FFFFFFFFFFFF00FFFFFFFFFFFFFFFFFFFFFFFF00FFFF000000FF00FFFFFFFF00FFFFFFFFFFFF00FFFFFFFFFF
1004
FFFFFFFFFFFFFFFF00FF0000FFFFFFFFFFFFFF00FFFFFFFFFFFF00FFFFFFFFFFFFFFFFFFFFFFFFFFFF00FFFF00FFFFFFFFFFFF00FFFFFFFFFFFF00FFFFFFFFFFFFFFFFFFFFFFFFFFFFFFFFFFFFFFFFFFFFFFFF00FFFFFFFFFFFF00FFFFFFFFFFFFFFFFFFFFFFFFFFFFFFFFFFFFFFFFFFFFFFFF00FFFFFFFFFFFF0000000000
1004
000000000000000000000000000000000000000000FFFFFFFFFFFFFFFFFFFFFFFFFFFFFFFFFFFFFFFFFFFFFFFFFFFFFFFFFFFFFFFFFFFFFF
  0
BLOCK_RECORD
  5
42
330
1
100
AcDbSymbolTableRecord
100
AcDbBlockTableRecord
  2
CONNR3MOLEX
1001
ACAD
1000
DesignCenter Data
1002
{
1070
     1
1070
     1
1002
}
1001
CONTENTBLOCKICON
1071
        0
1004
2800000020000000200000000100080000000000000400000000000000000000000000000000000000000000000080000080000000808000800000008000800080800000C0C0C000C0DCC000F0CAA6000020400000206000002080000020A0000020C0000020E00000400000004020000040400000406000004080000040A0
1004
000040C0000040E00000600000006020000060400000606000006080000060A0000060C0000060E00000800000008020000080400000806000008080000080A0000080C0000080E00000A0000000A0200000A0400000A0600000A0800000A0A00000A0C00000A0E00000C0000000C0200000C0400000C0600000C0800000C0
1004
A00000C0C00000C0E00000E0000000E0200000E0400000E0600000E0800000E0A00000E0C00000E0E00040000000400020004000400040006000400080004000A0004000C0004000E00040200000402020004020400040206000402080004020A0004020C0004020E000404000004040200040404000404060004040800040
1004
40A0004040C0004040E00040600000406020004060400040606000406080004060A0004060C0004060E00040800000408020004080400040806000408080004080A0004080C0004080E00040A0000040A0200040A0400040A0600040A0800040A0A00040A0C00040A0E00040C0000040C0200040C0400040C0600040C08000
1004
40C0A00040C0C00040C0E00040E0000040E0200040E0400040E0600040E0800040E0A00040E0C00040E0E00080000000800020008000400080006000800080008000A0008000C0008000E00080200000802020008020400080206000802080008020A0008020C0008020E00080400000804020008040400080406000804080
1004
008040A0008040C0008040E00080600000806020008060400080606000806080008060A0008060C0008060E00080800000808020008080400080806000808080008080A0008080C0008080E00080A0000080A0200080A0400080A0600080A0800080A0A00080A0C00080A0E00080C0000080C0200080C0400080C0600080C0
1004
800080C0A00080C0C00080C0E00080E0000080E0200080E0400080E0600080E0800080E0A00080E0C00080E0E000C0000000C0002000C0004000C0006000C0008000C000A000C000C000C000E000C0200000C0202000C0204000C0206000C0208000C020A000C020C000C020E000C0400000C0402000C0404000C0406000C0
1004
408000C040A000C040C000C040E000C0600000C0602000C0604000C0606000C0608000C060A000C060C000C060E000C0800000C0802000C0804000C0806000C0808000C080A000C080C000C080E000C0A00000C0A02000C0A04000C0A06000C0A08000C0A0A000C0A0C000C0A0E000C0C00000C0C02000C0C04000C0C06000
1004
C0C08000C0C0A000F0FBFF00A4A0A000808080000000FF0000FF000000FFFF00FF000000FF00FF00FFFF0000FFFFFF00FFFFFFFFFFFFFFFFFFFFFFFFFFFFFFFFFFFFFFFFFFFFFFFFFFFFFFFFFFFFFFFFFFFFFF0000000000000000000000000000000000000000000000000000FFFFFFFFFFFF00FFFFFFFFFFFFFFFFFFFFFF
1004
FFFFFFFFFFFFFFFFFFFFFFFFFF00FFFFFFFFFFFF00FFFFFFFFFFFFFFFFFFFFFFFFFFFFFFFFFFFFFFFFFFFFFFFF00FFFFFFFFFFFF00FFFF0000000000000000000000000000000000000000000000FFFFFFFFFFFF00FFFF00FFFFFFFFFFFFFF0000000000FFFFFFFFFFFFFFFFFFFFFFFFFFFFFFFF00FFFF00FFFFFFFFFFFFFF
1004
0000FFFFFFFFFFFFFFFFFFFFFFFFFFFFFFFFFFFFFF00FFFF00FFFFFFFFFFFFFF0000FFFFFFFFFFFFFFFFFFFFFFFFFFFFFFFFFFFFFF00FFFF00FFFFFFFFFFFFFF0000000000FFFFFFFFFFFFFFFFFFFFFFFFFFFFFFFF00FFFF00000000000000000000FFFF00FFFFFFFFFFFFFFFFFFFFFFFFFFFFFFFF00FFFF00FFFFFFFFFFFF
1004
FF0000FFFF00FFFFFFFFFFFFFFFFFFFFFFFFFFFFFFFF00FFFF00FFFFFFFFFFFFFF0000FFFF00FFFFFFFFFFFFFFFFFFFFFFFFFFFFFFFF00FFFF00FFFFFFFFFFFFFF0000FFFF00FFFFFFFFFFFFFFFFFFFFFFFFFFFFFFFF00FFFF00000000000000000000FFFF00FFFFFFFFFFFFFFFFFFFFFFFFFFFFFFFF00FFFF00FFFFFFFFFF
1004
FFFF0000000000FFFFFFFFFFFFFFFFFFFFFFFFFFFFFFFF00FFFF00FFFFFFFFFFFFFF0000FFFFFFFFFFFFFFFFFFFFFFFFFFFFFFFFFFFFFF00FFFF00FFFFFFFFFFFFFF0000FFFFFFFFFFFFFFFFFFFFFFFFFFFFFFFFFFFFFF00FFFF00FFFFFFFFFFFFFF0000000000FFFFFFFFFFFFFFFFFFFFFFFFFFFFFFFF00FFFF0000000000
1004
0000000000FFFF00FFFFFFFFFFFFFFFFFFFFFFFFFFFFFFFF00FFFF00FFFFFFFFFFFFFF0000FFFF00FFFFFFFFFFFFFFFFFFFFFFFFFFFFFFFF00FFFF00FFFFFFFFFFFFFF0000FFFF00FFFFFFFFFFFFFFFFFFFFFFFFFFFFFFFF00FFFF00000000000000000000FFFF00FFFFFFFFFFFFFFFFFFFFFFFFFFFFFFFF00FFFF00FFFFFF
1004
FFFFFFFF0000000000FFFFFFFFFFFFFFFFFFFFFFFFFFFFFFFF00FFFF00FFFFFFFFFFFFFF0000FFFFFFFFFFFFFFFFFFFFFFFFFFFFFFFFFFFFFF00FFFF00FFFFFFFFFFFFFF0000FFFFFFFFFFFFFFFFFFFFFFFFFFFFFFFFFFFFFF00FFFF00FFFFFFFFFFFFFF0000FFFFFFFFFFFFFFFFFFFFFFFFFFFFFFFFFFFFFF00FFFF00FFFF
1004
FFFFFFFFFF0000000000FFFFFFFFFFFFFFFFFFFFFFFFFFFFFFFF00FFFF0000000000000000000000000000000000000000000000FFFFFFFFFFFF00FFFFFFFFFFFFFFFFFFFFFFFFFFFFFFFFFFFFFFFFFFFFFFFF00FFFFFFFFFFFF00FFFFFFFFFFFFFFFFFFFFFFFFFFFFFFFFFFFFFFFFFFFFFFFF00FFFFFFFFFFFF0000000000
1004
000000000000000000000000000000000000000000FFFFFFFFFFFFFFFFFFFFFFFFFFFFFFFFFFFFFFFFFFFFFFFFFFFFFFFFFFFFFFFFFFFFFF
  0
BLOCK_RECORD
  5
5D
330
1
100
AcDbSymbolTableRecord
100
AcDbBlockTableRecord
  2
CONN3PP_TOP
1001
ACAD
1000
DesignCenter Data
1002
{
1070
     1
1070
     1
1002
}
  0
BLOCK_RECORD
  5
70
330
1
100
AcDbSymbolTableRecord
100
AcDbBlockTableRecord
  2
CONN3PP_FRONT
1001
ACAD
1000
DesignCenter Data
1002
{
1070
     1
1070
     1
1002
}
  0
BLOCK_RECORD
  5
85
330
1
100
AcDbSymbolTableRecord
100
AcDbBlockTableRecord
  2
R3_SCREW_HEAD
1001
ACAD
1000
DesignCenter Data
1002
{
1070
     1
1070
     1
1002
}
  0
BLOCK_RECORD
  5
94
330
1
100
AcDbSymbolTableRecord
100
AcDbBlockTableRecord
  2
R3_1_INCH_REAR_SCREW
1001
ACAD
1000
DesignCenter Data
1002
{
1070
     1
1070
     1
1002
}
  0
BLOCK_RECORD
  5
222
330
1
100
AcDbSymbolTableRecord
100
AcDbBlockTableRecord
  2
*D8
  0
BLOCK_RECORD
  5
23C
330
1
100
AcDbSymbolTableRecord
100
AcDbBlockTableRecord
  2
*D9
  0
BLOCK_RECORD
  5
256
330
1
100
AcDbSymbolTableRecord
100
AcDbBlockTableRecord
  2
*D10
  0
BLOCK_RECORD
  5
2D3
330
1
100
AcDbSymbolTableRecord
100
AcDbBlockTableRecord
  2
4671
1001
ACAD
1000
DesignCenter Data
1002
{
1070
     1
1070
     1
1002
}
1001
CONTENTBLOCKICON
1071
        0
1004
2800000020000000200000000100080000000000000400000000000000000000000000000000000000000000000080000080000000808000800000008000800080800000C0C0C000C0DCC000F0CAA6000020400000206000002080000020A0000020C0000020E00000400000004020000040400000406000004080000040A0
1004
000040C0000040E00000600000006020000060400000606000006080000060A0000060C0000060E00000800000008020000080400000806000008080000080A0000080C0000080E00000A0000000A0200000A0400000A0600000A0800000A0A00000A0C00000A0E00000C0000000C0200000C0400000C0600000C0800000C0
1004
A00000C0C00000C0E00000E0000000E0200000E0400000E0600000E0800000E0A00000E0C00000E0E00040000000400020004000400040006000400080004000A0004000C0004000E00040200000402020004020400040206000402080004020A0004020C0004020E000404000004040200040404000404060004040800040
1004
40A0004040C0004040E00040600000406020004060400040606000406080004060A0004060C0004060E00040800000408020004080400040806000408080004080A0004080C0004080E00040A0000040A0200040A0400040A0600040A0800040A0A00040A0C00040A0E00040C0000040C0200040C0400040C0600040C08000
1004
40C0A00040C0C00040C0E00040E0000040E0200040E0400040E0600040E0800040E0A00040E0C00040E0E00080000000800020008000400080006000800080008000A0008000C0008000E00080200000802020008020400080206000802080008020A0008020C0008020E00080400000804020008040400080406000804080
1004
008040A0008040C0008040E00080600000806020008060400080606000806080008060A0008060C0008060E00080800000808020008080400080806000808080008080A0008080C0008080E00080A0000080A0200080A0400080A0600080A0800080A0A00080A0C00080A0E00080C0000080C0200080C0400080C0600080C0
1004
800080C0A00080C0C00080C0E00080E0000080E0200080E0400080E0600080E0800080E0A00080E0C00080E0E000C0000000C0002000C0004000C0006000C0008000C000A000C000C000C000E000C0200000C0202000C0204000C0206000C0208000C020A000C020C000C020E000C0400000C0402000C0404000C0406000C0
1004
408000C040A000C040C000C040E000C0600000C0602000C0604000C0606000C0608000C060A000C060C000C060E000C0800000C0802000C0804000C0806000C0808000C080A000C080C000C080E000C0A00000C0A02000C0A04000C0A06000C0A08000C0A0A000C0A0C000C0A0E000C0C00000C0C02000C0C04000C0C06000
1004
C0C08000C0C0A000F0FBFF00A4A0A000808080000000FF0000FF000000FFFF00FF000000FF00FF00FFFF0000FFFFFF00FFFFFFFFFFFFFFFFFFFFFFFFFFFFFFFFFFFFFFFFFFFFFFFFFFFFFFFFFFFFFFFFFFFFFFFFFFFFFFFFFFFFFFFFFFFFFFFFFFFFFFFFFFFFFFFFFFFFFFFFFFFFFFFFFFFFFFFFFFFFFFFFFFFFFFFFFFFFFF
1004
FFFFFFFFFFFFFFFFFFFFFFFFFFFFFFFFFFFFFFFFFFFFFFFFFFFFFFFFFFFFFFFFFFFFFFFFFFFFFFFFFFFFFFFFFFFFFFFFFFFFFFFFFFFFFFFFFFFFFFFFFFFFFFFFFFFFFFFFFFFFFFFFFFFFFFFFFFFFFFFFFFFFFFFFFFFFFFFFFFFFFFFFFFFFFFFFFFFFFFFFFFFFFFFFFFFFFFFFFFFFFFFFFFFFFFFFFFFFFFFFFFFFFFFFFFFFFF
1004
FFFFFFFFFFFFFFFFFFFFFFFFFFFFFFFFFFFFFFFFFFFFFFFFFFFFFFFFFFFFFFFFFFFFFFFFFFFFFFFFFFFFFFFFFFFFFFFFFFFFFFFFFFFFFFFFFFFFFFFFFFFFFFFFFFFFFFFFFFFFFFFFFFFFFFFFFFFFFFFFFFFFFFFFFFFFFF000000000000FFFFFFFFFFFFFFFFFFFFFFFF0000000000FFFFFFFFFFFFFFFF0000000000000000FF
1004
FFFFFFFFFFFFFFFFFF0000000000000000FFFFFFFF000000000000000000000000000000FFFFFFFFFF000000FFFF000000FFFFFFFF000000000000000000000000000000FFFFFFFFFF000000FFFF000000FFFFFFFF00FFFFFFFFFFFFFFFFFF0000000000FFFFFFFFFF000000FFFF000000FFFFFFFF00FFFFFFFFFFFFFFFFFF
1004
0000000000FFFFFFFFFF00FF00FFFF000000FFFFFFFF00FFFFFFFFFFFFFFFFFFFFFFFF0000FFFFFFFFFF00FF00FFFF000000FFFFFFFF0000FFFFFFFFFFFFFFFFFFFFFF000000FFFFFFFF000000FFFF000000FFFFFF000000FFFFFFFFFFFFFFFFFF00000000FFFFFFFFFF000000FFFF000000FFFFFF000000FFFFFFFFFFFFFF
1004
FFFF00000000FFFFFFFFFF000000FFFF000000FFFFFFFF0000FFFFFFFF0000FFFFFFFF000000FFFFFFFFFF000000FFFF000000FFFFFFFF000000000000000000000000000000FFFFFFFFFF000000FFFF000000FFFFFFFF0000000000000000000000000000FFFFFFFFFFFFFFFFFFFFFFFFFFFFFFFFFFFF00FFFFFFFFFF0000
1004
FFFFFFFFFF00FFFFFFFFFFFFFFFFFFFFFFFFFFFFFFFFFFFFFFFFFFFFFFFFFFFFFFFFFFFFFFFFFFFFFFFFFFFFFFFFFFFFFFFFFFFFFFFFFFFFFFFFFFFFFFFFFFFFFFFFFFFFFFFFFFFFFFFFFFFFFFFFFFFFFFFFFFFFFFFFFFFFFFFFFFFFFFFFFFFFFFFFFFFFFFFFFFFFFFFFFFFFFFFFFFFFFFFFFFFFFFFFFFFFFFFFFFFFFFFFFF
1004
FFFFFFFFFFFFFFFFFFFFFFFFFFFFFFFFFFFFFFFFFFFFFFFFFFFFFFFFFFFFFFFFFFFFFFFFFFFFFFFFFFFFFFFFFFFFFFFFFFFFFFFFFFFFFFFFFFFFFFFFFFFFFFFFFFFFFFFFFFFFFFFFFFFFFFFFFFFFFFFFFFFFFFFFFFFFFFFFFFFFFFFFFFFFFFFFFFFFFFFFFFFFFFFFFFFFFFFFFFFFFFFFFFFFFFFFFFFFFFFFFFFFFFFFFFFFFF
1004
FFFFFFFFFFFFFFFFFFFFFFFFFFFFFFFFFFFFFFFFFFFFFFFFFFFFFFFFFFFFFFFFFFFFFFFFFFFFFFFFFFFFFFFFFFFFFFFFFFFFFFFFFFFFFFFF
  0
BLOCK_RECORD
  5
468
330
1
100
AcDbSymbolTableRecord
100
AcDbBlockTableRecord
  2
*D12
  0
BLOCK_RECORD
  5
475
330
1
100
AcDbSymbolTableRecord
100
AcDbBlockTableRecord
  2
*D13
  0
BLOCK_RECORD
  5
482
330
1
100
AcDbSymbolTableRecord
100
AcDbBlockTableRecord
  2
*D14
  0
BLOCK_RECORD
  5
490
330
1
100
AcDbSymbolTableRecord
100
AcDbBlockTableRecord
  2
*D15
  0
BLOCK_RECORD
  5
4B4
330
1
100
AcDbSymbolTableRecord
100
AcDbBlockTableRecord
  2
*D16
  0
BLOCK_RECORD
  5
4D8
330
1
100
AcDbSymbolTableRecord
100
AcDbBlockTableRecord
  2
*D17
  0
BLOCK_RECORD
  5
4F2
330
1
100
AcDbSymbolTableRecord
100
AcDbBlockTableRecord
  2
*D18
  0
BLOCK_RECORD
  5
50C
330
1
100
AcDbSymbolTableRecord
100
AcDbBlockTableRecord
  2
*D19
  0
BLOCK_RECORD
  5
52F
330
1
100
AcDbSymbolTableRecord
100
AcDbBlockTableRecord
  2
4671T
1001
ACAD
1000
DesignCenter Data
1002
{
1070
     1
1070
     4
1002
}
1001
CONTENTBLOCKICON
1071
        0
1004
2800000020000000200000000100080000000000000400000000000000000000000000000000000000000000000080000080000000808000800000008000800080800000C0C0C000C0DCC000F0CAA6000020400000206000002080000020A0000020C0000020E00000400000004020000040400000406000004080000040A0
1004
000040C0000040E00000600000006020000060400000606000006080000060A0000060C0000060E00000800000008020000080400000806000008080000080A0000080C0000080E00000A0000000A0200000A0400000A0600000A0800000A0A00000A0C00000A0E00000C0000000C0200000C0400000C0600000C0800000C0
1004
A00000C0C00000C0E00000E0000000E0200000E0400000E0600000E0800000E0A00000E0C00000E0E00040000000400020004000400040006000400080004000A0004000C0004000E00040200000402020004020400040206000402080004020A0004020C0004020E000404000004040200040404000404060004040800040
1004
40A0004040C0004040E00040600000406020004060400040606000406080004060A0004060C0004060E00040800000408020004080400040806000408080004080A0004080C0004080E00040A0000040A0200040A0400040A0600040A0800040A0A00040A0C00040A0E00040C0000040C0200040C0400040C0600040C08000
1004
40C0A00040C0C00040C0E00040E0000040E0200040E0400040E0600040E0800040E0A00040E0C00040E0E00080000000800020008000400080006000800080008000A0008000C0008000E00080200000802020008020400080206000802080008020A0008020C0008020E00080400000804020008040400080406000804080
1004
008040A0008040C0008040E00080600000806020008060400080606000806080008060A0008060C0008060E00080800000808020008080400080806000808080008080A0008080C0008080E00080A0000080A0200080A0400080A0600080A0800080A0A00080A0C00080A0E00080C0000080C0200080C0400080C0600080C0
1004
800080C0A00080C0C00080C0E00080E0000080E0200080E0400080E0600080E0800080E0A00080E0C00080E0E000C0000000C0002000C0004000C0006000C0008000C000A000C000C000C000E000C0200000C0202000C0204000C0206000C0208000C020A000C020C000C020E000C0400000C0402000C0404000C0406000C0
1004
408000C040A000C040C000C040E000C0600000C0602000C0604000C0606000C0608000C060A000C060C000C060E000C0800000C0802000C0804000C0806000C0808000C080A000C080C000C080E000C0A00000C0A02000C0A04000C0A06000C0A08000C0A0A000C0A0C000C0A0E000C0C00000C0C02000C0C04000C0C06000
1004
C0C08000C0C0A000F0FBFF00A4A0A000808080000000FF0000FF000000FFFF00FF000000FF00FF00FFFF0000FFFFFF00FFFFFFFFFFFFFFFFFFFFFFFFFFFFFFFFFFFFFFFFFFFFFFFFFFFFFFFFFFFFFFFFFFFFFFFFFFFFFFFFFFFFFFFFFFFFFFFFFFFFFFFFFFFFFFFFFFFFFFFFFFFFFFFFFFFFFFFFFFFFFFFFFFFFFFFFFFFFFF
1004
FFFFFFFFFFFFFFFFFFFFFFFFFFFFFFFFFFFFFFFFFFFFFFFFFFFFFFFFFFFFFFFFFFFFFFFFFFFFFFFFFFFFFFFFFFFFFFFFFFFFFFFFFFFFFFFFFFFFFFFFFFFFFFFFFFFFFFFFFFFFFFFFFFFFFFFFFFFFFFFFFFFFFFFFFFFFFFFFFFFFFFFFFFFFFFFFFFFFFFFFFFFFFFFFFFFFFFFFFFFFFFFFFFFFFFFF0000000000000000000000
1004
000000000000000000000000000000FFFFFFFFFFFF00FF000000FFFFFFFFFFFFFFFFFFFFFFFFFFFFFFFFFF0000FF00FFFFFFFFFFFF0000000000000000000000000000000000000000000000000000FFFFFFFFFFFF00FFFFFFFFFFFFFFFFFFFFFFFFFFFFFFFFFFFFFFFFFFFFFFFF00FFFFFFFFFFFF00FFFFFFFFFFFFFFFFFF
1004
FFFFFFFFFFFFFFFFFF000000000000000000FFFFFFFF00FFFFFFFFFFFFFFFFFFFFFFFFFFFFFFFFFFFF000000000000000000FFFFFFFF00FFFFFFFFFFFFFFFFFFFFFFFFFFFFFFFFFFFFFFFFFF00FFFF00FFFFFFFFFFFF00FFFFFFFFFFFFFFFFFFFFFFFFFFFFFFFFFFFFFFFFFFFFFFFF00FFFFFFFFFFFF00FFFFFFFFFFFFFFFF
1004
FFFFFFFFFFFFFFFFFFFFFFFFFFFFFFFF00FFFFFFFFFFFF000000FFFFFFFFFFFFFFFFFFFFFFFFFFFFFFFFFFFFFFFFFFFF00FFFFFFFFFFFF000000FFFFFFFFFFFFFFFFFFFFFFFFFFFFFFFFFFFFFFFFFFFF00FFFFFFFF000000000000FFFFFFFFFFFFFF0000000000FFFFFFFFFFFFFFFFFF00FFFFFFFF0000000000FFFFFFFFFF
1004
FFFFFF0000000000FFFFFFFFFFFFFF0000000000FFFF0000000000FFFFFFFFFFFFFFFFFFFFFFFFFFFFFFFFFFFFFF00000000F900FFFF0000000000FFFFFFFFFFFFFFFFFFFFFFFFFFFFFFFFFFFFFFFFFFFF00F900FFFFFFFF0000FFFFFFFFFFFFFFFFFFFF000000FFFFFFFFFFFFFFFFFF0000F900FFFFFFFF00FFFFFFFFFFFF
1004
FFFFFFFFFF000000FFFFFFFFFFFFFFFFFFFF00FFFFFFFFFFFF0000000000000000000000000000000000000000000000000000FFFFFFFFFFFF00FF000000FFFFFFFFFFFFFFFFFFFFFFFFFFFFFFFFFF0000FF00FFFFFFFFFFFF0000000000000000000000000000000000000000000000000000FFFFFFFFFFFFFFFFFFFFFFFF
1004
FFFFFFFFFFFFFFFFFFFFFFFFFFFFFFFFFFFFFFFFFFFFFFFFFFFFFFFFFFFFFFFFFFFFFFFFFFFFFFFFFFFFFFFFFFFFFFFFFFFFFFFFFFFFFFFFFFFFFFFFFFFFFFFFFFFFFFFFFFFFFFFFFFFFFFFFFFFFFFFFFFFFFFFFFFFFFFFFFFFFFFFFFFFFFFFFFFFFFFFFFFFFFFFFFFFFFFFFFFFFFFFFFFFFFFFFFFFFFFFFFFFFFFFFFFFFFF
1004
FFFFFFFFFFFFFFFFFFFFFFFFFFFFFFFFFFFFFFFFFFFFFFFFFFFFFFFFFFFFFFFFFFFFFFFFFFFFFFFFFFFFFFFFFFFFFFFFFFFFFFFFFFFFFFFF
  0
BLOCK_RECORD
  5
59E
330
1
100
AcDbSymbolTableRecord
100
AcDbBlockTableRecord
  2
4671F
1001
ACAD
1000
DesignCenter Data
1002
{
1070
     1
1070
     4
1002
}
1001
CONTENTBLOCKICON
1071
        0
1004
2800000020000000200000000100080000000000000400000000000000000000000000000000000000000000000080000080000000808000800000008000800080800000C0C0C000C0DCC000F0CAA6000020400000206000002080000020A0000020C0000020E00000400000004020000040400000406000004080000040A0
1004
000040C0000040E00000600000006020000060400000606000006080000060A0000060C0000060E00000800000008020000080400000806000008080000080A0000080C0000080E00000A0000000A0200000A0400000A0600000A0800000A0A00000A0C00000A0E00000C0000000C0200000C0400000C0600000C0800000C0
1004
A00000C0C00000C0E00000E0000000E0200000E0400000E0600000E0800000E0A00000E0C00000E0E00040000000400020004000400040006000400080004000A0004000C0004000E00040200000402020004020400040206000402080004020A0004020C0004020E000404000004040200040404000404060004040800040
1004
40A0004040C0004040E00040600000406020004060400040606000406080004060A0004060C0004060E00040800000408020004080400040806000408080004080A0004080C0004080E00040A0000040A0200040A0400040A0600040A0800040A0A00040A0C00040A0E00040C0000040C0200040C0400040C0600040C08000
1004
40C0A00040C0C00040C0E00040E0000040E0200040E0400040E0600040E0800040E0A00040E0C00040E0E00080000000800020008000400080006000800080008000A0008000C0008000E00080200000802020008020400080206000802080008020A0008020C0008020E00080400000804020008040400080406000804080
1004
008040A0008040C0008040E00080600000806020008060400080606000806080008060A0008060C0008060E00080800000808020008080400080806000808080008080A0008080C0008080E00080A0000080A0200080A0400080A0600080A0800080A0A00080A0C00080A0E00080C0000080C0200080C0400080C0600080C0
1004
800080C0A00080C0C00080C0E00080E0000080E0200080E0400080E0600080E0800080E0A00080E0C00080E0E000C0000000C0002000C0004000C0006000C0008000C000A000C000C000C000E000C0200000C0202000C0204000C0206000C0208000C020A000C020C000C020E000C0400000C0402000C0404000C0406000C0
1004
408000C040A000C040C000C040E000C0600000C0602000C0604000C0606000C0608000C060A000C060C000C060E000C0800000C0802000C0804000C0806000C0808000C080A000C080C000C080E000C0A00000C0A02000C0A04000C0A06000C0A08000C0A0A000C0A0C000C0A0E000C0C00000C0C02000C0C04000C0C06000
1004
C0C08000C0C0A000F0FBFF00A4A0A000808080000000FF0000FF000000FFFF00FF000000FF00FF00FFFF0000FFFFFF00FFFFFFFFFFFFFFFFFFFFFFFFFFFFFFFFFFFFFFFFFFFFFFFFFFFFFFFFFFFFFFFFFFFFFFFFFFFFFFFFFFFFFFFFFF000000000000FFFFFFFFFFFFFFFFFFFFFFFFFFFFFFFFFFFFFFFFFFFFFFFFFFFF00FF
1004
0000FF00FFFFFFFFFFFFFFFFFFFFFFFFFFFFFFFFFFFFFFFFFFFFFFFFFFFF000000000000FFFFFFFFFFFFFFFFFFFFFFFFFFFFFFFFFFFFFFFFFFFFFFFFFFFF00FFFFFFFF00FFFFFFFFFFFFFFFFFFFFFFFFFFFFFFFFFFFFFFFFFFFFFFFFFFFF000000000000FFFFFFFFFFFFFFFFFFFFFFFFFFFFFFFFFFFFFFFFFFFFFFFFFFFF00
1004
FFFFFFFF00FFFFFFFFFFFFFFFFFFFFFFFFFFFFFFFFFFFFFFFFFFFFFFFFFFFF000000000000FFFFFFFFFFFFFFFFFFFFFFFFFFFFFFFFFFFFFFFFFFFFFFFFFFFF00FFFFFFFF00FFFFFFFFFFFFFFFFFFFFFFFFFFFFFFFFFFFFFFFFFFFFFFFFFFFF00FFFFFFFF00FFFFFFFFFFFFFFFFFFFFFFFFFFFFFFFFFFFFFFFFFFFFFFFFFFFF
1004
00FFFFFFFF00FFFFFFFFFFFFFFFFFFFFFFFFFFFFFFFFFFFFFFFFFFFFFFFFFFFF000000000000FFFFFFFFFFFFFFFFFFFFFFFFFFFFFFFFFFFFFFFFFFFFFFFFFFFF000000000000FFFFFFFFFFFFFFFFFFFFFFFFFFFFFFFFFFFFFFFFFFFFFFFFFFFF00FFFFFFFF00FFFFFFFFFFFFFFFFFFFFFFFFFFFFFFFFFFFFFFFFFFFFFFFFFF
1004
FF00FFFFFFFF00FFFFFFFFFFFFFFFFFFFFFFFFFFFFFFFFFFFFFFFFFFFFFFFFFFFF00FF00000000FFFFFFFFFFFFFFFFFFFFFFFFFFFFFFFFFFFFFFFFFFFFFFFFFFFF00FF00000000FFFFFFFFFFFFFFFFFFFFFFFFFFFFFFFFFFFFFFFFFFFFFFFFFFFF000000000000FFFFFFFFFFFFFFFFFFFFFFFFFFFFFFFFFFFFFFFFFFFFFFFF
1004
FFFF000000000000FFFFFFFFFFFFFFFFFFFFFFFFFFFFFFFFFFFFFFFFFFFFFFFFFFFF00000000FF00FFFFFFFFFFFFFFFFFFFFFFFFFFFFFFFFFFFFFFFFFFFFFFFFFFFF00000000FF00FFFFFFFFFFFFFFFFFFFFFFFFFFFFFFFFFFFFFFFFFFFFFFFFFFFF00000000FF00FFFFFFFFFFFFFFFFFFFFFFFFFFFFFFFFFFFFFFFFFFFFFF
1004
FFFFFF00000000FF00FFFFFFFFFFFFFFFFFFFFFFFFFFFFFFFFFFFFFFFFFFFFFFFFFFFF000000000000FFFFFFFFFFFFFFFFFFFFFFFFFFFFFFFFFFFFFFFFFFFFFFFFFFFF000000000000FFFFFFFFFFFFFFFFFFFFFFFFFFFFFFFFFFFFFFFFFFFFFFFFFFFF000000000000FFFFFFFFFFFFFFFFFFFFFFFFFFFFFFFFFFFFFFFFFFFF
1004
FFFFFFFF00000000FF00FFFFFFFFFFFFFFFFFFFFFFFFFFFFFFFFFFFFFFFFFFFFFFFFFFFF00FFFFFFFF00FFFFFFFFFFFFFFFFFFFFFFFFFFFFFFFFFFFFFFFFFFFFFFFFFFFF00FF0000FF00FFFFFFFFFFFFFFFFFFFFFFFFFFFFFFFFFFFFFFFFFFFFFFFFFFFF00FF0000FF00FFFFFFFFFFFFFFFFFFFFFFFFFFFFFFFFFFFFFFFFFF
1004
FFFFFFFFFF000000000000FFFFFFFFFFFFFFFFFFFFFFFFFFFFFFFFFFFFFFFFFFFFFFFFFFFFFFFFFFFFFFFFFFFFFFFFFFFFFFFFFFFFFFFFFF
  0
BLOCK_RECORD
  5
5C6
330
1
100
AcDbSymbolTableRecord
100
AcDbBlockTableRecord
  2
4671R
1001
ACAD
1000
DesignCenter Data
1002
{
1070
     1
1070
     4
1002
}
1001
CONTENTBLOCKICON
1071
        0
1004
2800000020000000200000000100080000000000000400000000000000000000000000000000000000000000000080000080000000808000800000008000800080800000C0C0C000C0DCC000F0CAA6000020400000206000002080000020A0000020C0000020E00000400000004020000040400000406000004080000040A0
1004
000040C0000040E00000600000006020000060400000606000006080000060A0000060C0000060E00000800000008020000080400000806000008080000080A0000080C0000080E00000A0000000A0200000A0400000A0600000A0800000A0A00000A0C00000A0E00000C0000000C0200000C0400000C0600000C0800000C0
1004
A00000C0C00000C0E00000E0000000E0200000E0400000E0600000E0800000E0A00000E0C00000E0E00040000000400020004000400040006000400080004000A0004000C0004000E00040200000402020004020400040206000402080004020A0004020C0004020E000404000004040200040404000404060004040800040
1004
40A0004040C0004040E00040600000406020004060400040606000406080004060A0004060C0004060E00040800000408020004080400040806000408080004080A0004080C0004080E00040A0000040A0200040A0400040A0600040A0800040A0A00040A0C00040A0E00040C0000040C0200040C0400040C0600040C08000
1004
40C0A00040C0C00040C0E00040E0000040E0200040E0400040E0600040E0800040E0A00040E0C00040E0E00080000000800020008000400080006000800080008000A0008000C0008000E00080200000802020008020400080206000802080008020A0008020C0008020E00080400000804020008040400080406000804080
1004
008040A0008040C0008040E00080600000806020008060400080606000806080008060A0008060C0008060E00080800000808020008080400080806000808080008080A0008080C0008080E00080A0000080A0200080A0400080A0600080A0800080A0A00080A0C00080A0E00080C0000080C0200080C0400080C0600080C0
1004
800080C0A00080C0C00080C0E00080E0000080E0200080E0400080E0600080E0800080E0A00080E0C00080E0E000C0000000C0002000C0004000C0006000C0008000C000A000C000C000C000E000C0200000C0202000C0204000C0206000C0208000C020A000C020C000C020E000C0400000C0402000C0404000C0406000C0
1004
408000C040A000C040C000C040E000C0600000C0602000C0604000C0606000C0608000C060A000C060C000C060E000C0800000C0802000C0804000C0806000C0808000C080A000C080C000C080E000C0A00000C0A02000C0A04000C0A06000C0A08000C0A0A000C0A0C000C0A0E000C0C00000C0C02000C0C04000C0C06000
1004
C0C08000C0C0A000F0FBFF00A4A0A000808080000000FF0000FF000000FFFF00FF000000FF00FF00FFFF0000FFFFFF00FFFFFFFFFFFFFFFFFFFFFFFFFFFFFFFFFFFFFFFFFFFFFFFFFFFFFFFFFFFFFFFFFFFFFFFFFFFFFFFFFFFFFFFFFF000000000000FFFFFFFFFFFFFFFFFFFFFFFFFFFFFFFFFFFFFFFFFFFFFFFFFFFF00FF
1004
0000FF00FFFFFFFFFFFFFFFFFFFFFFFFFFFFFFFFFFFFFFFFFFFFFFFFFFFF00FFFFFFFF00FFFFFFFFFFFFFFFFFFFFFFFFFFFFFFFFFFFFFFFFFFFFFFFFFFFF00FFFFFFFF00FFFFFFFFFFFFFFFFFFFFFFFFFFFFFFFFFFFFFFFFFFFFFFFFFFFF00FFFF000000FFFFFFFFFFFFFFFFFFFFFFFFFFFFFFFFFFFFFFFFFFFFFFFFFFFF00
1004
FFFF000000FFFFFFFFFFFFFFFFFFFFFFFFFFFFFFFFFFFFFFFFFFFFFFFFFFFF00FF00000000FFFFFFFFFFFFFFFFFFFFFFFFFFFFFFFFFFFFFFFFFFFFFFFFFFFF00FF00000000FFFFFFFFFFFFFFFFFFFFFFFFFFFFFFFFFFFFFFFFFFFFFFFFFFFF00FF00000000FFFFFFFFFFFFFFFFFFFFFFFFFFFFFFFFFFFFFFFFFFFFFFFFFFFF
1004
00FF00000000FFFFFFFFFFFFFFFFFFFFFFFFFFFFFFFFFFFFFFFFFFFFFFFFFFFF00FFFF000000FFFFFFFFFFFFFFFFFFFFFFFFFFFFFFFFFFFFFFFFFFFFFFFFFFFF00FFFF000000FFFFFFFFFFFFFFFFFFFFFFFFFFFFFFFFFFFFFFFFFFFFFFFFFFFF00FFFF000000FFFFFFFFFFFFFFFFFFFFFFFFFFFFFFFFFFFFFFFFFFFFFFFFFF
1004
FF00FFFF000000FFFFFFFFFFFFFFFFFFFFFFFFFFFFFFFFFFFFFFFFFFFFFFFFFFFF00FFFF000000FFFFFFFFFFFFFFFFFFFFFFFFFFFFFFFFFFFFFFFFFFFFFFFFFFFF00FFFF000000FFFFFFFFFFFFFFFFFFFFFFFFFFFFFFFFFFFFFFFFFFFFFFFFFFFF00FFFF000000FFFFFFFFFFFFFFFFFFFFFFFFFFFFFFFFFFFFFFFFFFFFFFFF
1004
FFFF00FFFF000000FFFFFFFFFFFFFFFFFFFFFFFFFFFFFFFFFFFFFFFFFFFFFFFFFFFF00FFFF000000FFFFFFFFFFFFFFFFFFFFFFFFFFFFFFFFFFFFFFFFFFFFFFFFFFFF000000000000FFFFFFFFFFFFFFFFFFFFFFFFFFFFFFFFFFFFFFFFFFFFFFFFFFFF000000000000FFFFFFFFFFFFFFFFFFFFFFFFFFFFFFFFFFFFFFFFFFFFFF
1004
FFFFFF000000000000FFFFFFFFFFFFFFFFFFFFFFFFFFFFFFFFFFFFFFFFFFFFFFFFFFFF000000000000FFFFFFFFFFFFFFFFFFFFFFFFFFFFFFFFFFFFFFFFFFFFFFFFFFFF00FFFF000000FFFFFFFFFFFFFFFFFFFFFFFFFFFFFFFFFFFFFFFFFFFFFFFFFFFF00FFFF000000FFFFFFFFFFFFFFFFFFFFFFFFFFFFFFFFFFFFFFFFFFFF
1004
FFFFFFFF00FFFF000000FFFFFFFFFFFFFFFFFFFFFFFFFFFFFFFFFFFFFFFFFFFFFFFFFFFF00FFFFFFFF00FFFFFFFFFFFFFFFFFFFFFFFFFFFFFFFFFFFFFFFFFFFFFFFFFFFF00FFFFFFFF00FFFFFFFFFFFFFFFFFFFFFFFFFFFFFFFFFFFFFFFFFFFFFFFFFFFF00FF0000FF00FFFFFFFFFFFFFFFFFFFFFFFFFFFFFFFFFFFFFFFFFF
1004
FFFFFFFFFF000000000000FFFFFFFFFFFFFFFFFFFFFFFFFFFFFFFFFFFFFFFFFFFFFFFFFFFFFFFFFFFFFFFFFFFFFFFFFFFFFFFFFFFFFFFFFF
  0
ENDTAB
  0
ENDSEC
  0
SECTION
  2
BLOCKS
  0
BLOCK
  5
20
330
1F
100
AcDbEntity
  8
0
100
AcDbBlockBegin
  2
*MODEL_SPACE
 70
     0
 10
0.0
 20
0.0
 30
0.0
  3
*MODEL_SPACE
  1

  0
ENDBLK
  5
21
330
1F
100
AcDbEntity
  8
0
100
AcDbBlockEnd
  0
BLOCK
  5
1C
330
1B
100
AcDbEntity
 67
     1
  8
0
100
AcDbBlockBegin
  2
*PAPER_SPACE
 70
     0
 10
0.0
 20
0.0
 30
0.0
  3
*PAPER_SPACE
  1

  0
ENDBLK
  5
1D
330
1B
100
AcDbEntity
 67
     1
  8
0
100
AcDbBlockEnd
  0
BLOCK
  5
32
330
2B
100
AcDbEntity
  8
0
100
AcDbBlockBegin
  2
ST_CONN
 70
     0
 10
0.0
 20
0.0
 30
0.0
  3
ST_CONN
  1

  0
LINE
  5
2C
330
2B
100
AcDbEntity
  8
IFS_FIBER_OPTICS
100
AcDbLine
 10
5.595216136690998
 20
3.374462137943528
 30
0.0
 11
6.045216136690998
 21
3.374462137943528
 31
0.0
  0
LINE
  5
2D
330
2B
100
AcDbEntity
  8
IFS_FIBER_OPTICS
100
AcDbLine
 10
6.045216136690998
 20
3.644462137943528
 30
0.0
 11
5.595216136690998
 21
3.644462137943528
 31
0.0
  0
LINE
  5
2E
330
2B
100
AcDbEntity
  8
IFS_FIBER_OPTICS
100
AcDbLine
 10
5.595216136690998
 20
3.644462137943528
 30
0.0
 11
5.595216136690998
 21
3.374462137943528
 31
0.0
  0
LINE
  5
2F
330
2B
100
AcDbEntity
  8
IFS_FIBER_OPTICS
100
AcDbLine
 10
6.045216136690998
 20
3.374462137943528
 30
0.0
 11
6.045216136690998
 21
3.644462137943528
 31
0.0
  0
LWPOLYLINE
  5
30
330
2B
100
AcDbEntity
  8
IFS_FIBER_OPTICS
100
AcDbPolyline
 90
        2
 70
     0
 43
0.005
 10
5.948800464343134
 20
3.355032876764508
 10
5.948800464343134
 20
3.37495236341309
  0
LWPOLYLINE
  5
31
330
2B
100
AcDbEntity
  8
IFS_FIBER_OPTICS
100
AcDbPolyline
 90
        2
 70
     0
 43
0.005
 10
5.948800464343134
 20
3.64463168517311
 10
5.948800464343134
 20
3.664551171821692
  0
ENDBLK
  5
33
330
2B
100
AcDbEntity
  8
0
100
AcDbBlockEnd
  0
BLOCK
  5
40
330
34
100
AcDbEntity
  8
0
100
AcDbBlockBegin
  2
LARGE_2_PIN
 70
     0
 10
0.0
 20
0.0
 30
0.0
  3
LARGE_2_PIN
  1

  0
LINE
  5
35
330
34
100
AcDbEntity
  8
IFS_FIBER_OPTICS
100
AcDbLine
 10
5.5267952523269
 20
0.6431137898109789
 30
0.0
 11
5.8867952523269
 21
0.6431137898109789
 31
0.0
  0
LINE
  5
36
330
34
100
AcDbEntity
  8
IFS_FIBER_OPTICS
100
AcDbLine
 10
5.8867952523269
 20
1.043113789810979
 30
0.0
 11
5.5267952523269
 21
1.043113789810979
 31
0.0
  0
LINE
  5
37
330
34
100
AcDbEntity
  8
IFS_FIBER_OPTICS
100
AcDbLine
 10
5.701111325003729
 20
0.676874937564393
 30
0.0
 11
5.812500277325071
 21
0.7711636716735413
 31
0.0
  0
CIRCLE
  5
38
330
34
100
AcDbEntity
  8
IFS_FIBER_OPTICS
100
AcDbCircle
 10
5.745605271229694
 20
0.7372511642537205
 30
0.0
 40
0.075
  0
LINE
  5
39
330
34
100
AcDbEntity
  8
IFS_FIBER_OPTICS
100
AcDbLine
 10
5.78724417263783
 20
0.7996306632058881
 30
0.0
 11
5.678169229395171
 21
0.7044276930525735
 31
0.0
  0
LINE
  5
3A
330
34
100
AcDbEntity
  8
IFS_FIBER_OPTICS
100
AcDbLine
 10
5.5267952523269
 20
1.043113789810979
 30
0.0
 11
5.5267952523269
 21
0.6431137898109789
 31
0.0
  0
LINE
  5
3B
330
34
100
AcDbEntity
  8
IFS_FIBER_OPTICS
100
AcDbLine
 10
5.745605271229694
 20
0.7372511642537205
 30
0.0
 11
5.745605271229694
 21
0.7372511642537205
 31
0.0
  0
LINE
  5
3C
330
34
100
AcDbEntity
  8
IFS_FIBER_OPTICS
100
AcDbLine
 10
5.78724417263783
 20
0.9996306632058882
 30
0.0
 11
5.678169229395171
 21
0.9044276930525736
 31
0.0
  0
CIRCLE
  5
3D
330
34
100
AcDbEntity
  8
IFS_FIBER_OPTICS
100
AcDbCircle
 10
5.745605271229694
 20
0.9372511642537206
 30
0.0
 40
0.075
  0
LINE
  5
3E
330
34
100
AcDbEntity
  8
IFS_FIBER_OPTICS
100
AcDbLine
 10
5.701111325003729
 20
0.8768749375643931
 30
0.0
 11
5.812500277325071
 21
0.9711636716735414
 31
0.0
  0
LINE
  5
3F
330
34
100
AcDbEntity
  8
IFS_FIBER_OPTICS
100
AcDbLine
 10
5.8867952523269
 20
0.6431137898109789
 30
0.0
 11
5.8867952523269
 21
1.043113789810979
 31
0.0
  0
ENDBLK
  5
41
330
34
100
AcDbEntity
  8
0
100
AcDbBlockEnd
  0
BLOCK
  5
5B
330
42
100
AcDbEntity
  8
0
100
AcDbBlockBegin
  2
CONNR3MOLEX
 70
     0
 10
0.0
 20
0.0
 30
0.0
  3
CONNR3MOLEX
  1

  0
LINE
  5
43
330
42
100
AcDbEntity
  8
0
100
AcDbLine
 10
0.0499999999999998
 20
0.1299999999999999
 30
0.0
 11
0.2000000000000011
 21
0.1299999999999999
 31
0.0
  0
LINE
  5
44
330
42
100
AcDbEntity
  8
0
100
AcDbLine
 10
0.0499999999999998
 20
0.1893308432827889
 30
0.0
 11
0.2000000000000002
 21
0.1893308432827885
 31
0.0
  0
LINE
  5
45
330
42
100
AcDbEntity
  8
0
100
AcDbLine
 10
0.0499999999999998
 20
0.2693308432827894
 30
0.0
 11
0.2000000000000002
 21
0.2693308432827886
 31
0.0
  0
LINE
  5
46
330
42
100
AcDbEntity
  8
0
100
AcDbLine
 10
0.0499999999999998
 20
0.3287453703817866
 30
0.0
 11
0.1999999999999993
 21
0.3287453703817862
 31
0.0
  0
LINE
  5
47
330
42
100
AcDbEntity
  8
0
100
AcDbLine
 10
0.42
 20
0.42
 30
0.0
 11
0.0499999999999998
 21
0.42
 31
0.0
  0
LINE
  5
48
330
42
100
AcDbEntity
  8
0
100
AcDbLine
 10
0.0499999999999998
 20
0.0499999999999998
 30
0.0
 11
0.42
 21
0.0499999999999998
 31
0.0
  0
LINE
  5
49
330
42
100
AcDbEntity
  8
0
100
AcDbLine
 10
0.0
 20
0.0
 30
0.0
 11
0.42
 21
0.0
 31
0.0
  0
LINE
  5
4A
330
42
100
AcDbEntity
  8
0
100
AcDbLine
 10
0.42
 20
0.4699999999999998
 30
0.0
 11
0.0
 21
0.4699999999999998
 31
0.0
  0
LINE
  5
4B
330
42
100
AcDbEntity
  8
0
100
AcDbLine
 10
0.0
 20
0.4699999999999998
 30
0.0
 11
0.0
 21
0.0
 31
0.0
  0
LINE
  5
4C
330
42
100
AcDbEntity
  8
0
100
AcDbLine
 10
0.0499999999999998
 20
0.42
 30
0.0
 11
0.0499999999999998
 21
0.0499999999999998
 31
0.0
  0
LINE
  5
4D
330
42
100
AcDbEntity
  8
0
100
AcDbLine
 10
0.2500000000000009
 20
0.4048126075574832
 30
0.0
 11
0.1999999999999993
 21
0.4048126075574832
 31
0.0
  0
LINE
  5
4E
330
42
100
AcDbEntity
  8
0
100
AcDbLine
 10
0.2000000000000002
 20
0.2034316703424213
 30
0.0
 11
0.25
 21
0.2034316703424213
 31
0.0
  0
LINE
  5
4F
330
42
100
AcDbEntity
  8
0
100
AcDbLine
 10
0.2000000000000002
 20
0.2554090772661204
 30
0.0
 11
0.25
 21
0.2554090772661204
 31
0.0
  0
LINE
  5
50
330
42
100
AcDbEntity
  8
0
100
AcDbLine
 10
0.1999999999999993
 20
0.3426671613319931
 30
0.0
 11
0.25
 21
0.3426671613319931
 31
0.0
  0
LINE
  5
51
330
42
100
AcDbEntity
  8
0
100
AcDbLine
 10
0.2000000000000011
 20
0.0642139104416018
 30
0.0
 11
0.2500000000000009
 21
0.0642139104416022
 31
0.0
  0
LINE
  5
52
330
42
100
AcDbEntity
  8
0
100
AcDbLine
 10
0.2000000000000011
 20
0.1173438354756446
 30
0.0
 11
0.25
 21
0.1173438354756451
 31
0.0
  0
LINE
  5
53
330
42
100
AcDbEntity
  8
0
100
AcDbLine
 10
0.1873338417611006
 20
0.0499999999999998
 30
0.0
 11
0.1873338417610988
 21
0.42
 31
0.0
  0
LINE
  5
54
330
42
100
AcDbEntity
  8
0
100
AcDbLine
 10
0.2000000000000011
 20
0.0499999999999998
 30
0.0
 11
0.1999999999999993
 21
0.42
 31
0.0
  0
LINE
  5
55
330
42
100
AcDbEntity
  8
0
100
AcDbLine
 10
0.2500000000000009
 20
0.4048126075574832
 30
0.0
 11
0.2500000000000018
 21
0.42
 31
0.0
  0
LINE
  5
56
330
42
100
AcDbEntity
  8
0
100
AcDbLine
 10
0.2500000000000009
 20
0.2554090772661208
 30
0.0
 11
0.25
 21
0.3426671613319931
 31
0.0
  0
LINE
  5
57
330
42
100
AcDbEntity
  8
0
100
AcDbLine
 10
0.25
 20
0.0499999999999998
 30
0.0
 11
0.25
 21
0.0642139104416022
 31
0.0
  0
LINE
  5
58
330
42
100
AcDbEntity
  8
0
100
AcDbLine
 10
0.2500000000000009
 20
0.1173438354756455
 30
0.0
 11
0.2500000000000009
 21
0.2034316703424213
 31
0.0
  0
LINE
  5
59
330
42
100
AcDbEntity
  8
0
100
AcDbLine
 10
0.4200000000000009
 20
0.0499999999999998
 30
0.0
 11
0.42
 21
0.0
 31
0.0
  0
LINE
  5
5A
330
42
100
AcDbEntity
  8
0
100
AcDbLine
 10
0.42
 20
0.4699999999999998
 30
0.0
 11
0.4200000000000009
 21
0.42
 31
0.0
  0
ENDBLK
  5
5C
330
42
100
AcDbEntity
  8
0
100
AcDbBlockEnd
  0
BLOCK
  5
6E
330
5D
100
AcDbEntity
  8
0
100
AcDbBlockBegin
  2
CONN3PP_TOP
 70
     0
 10
0.0
 20
0.0
 30
0.0
  3
CONN3PP_TOP
  1

  0
LINE
  5
5E
330
5D
100
AcDbEntity
  8
IFS_FIBER_OPTICS
100
AcDbLine
 10
6.272512946242644
 20
1.638842380263329
 30
0.0
 11
5.912512946242644
 21
1.638842380263329
 31
0.0
  0
LINE
  5
5F
330
5D
100
AcDbEntity
  8
IFS_FIBER_OPTICS
100
AcDbLine
 10
5.912512946242644
 20
1.038842380263329
 30
0.0
 11
6.272512946242644
 21
1.038842380263329
 31
0.0
  0
LINE
  5
60
330
5D
100
AcDbEntity
  8
IFS_FIBER_OPTICS
100
AcDbLine
 10
6.171900926284887
 20
1.404979947641828
 30
0.0
 11
6.062825983042229
 21
1.309776977488513
 31
0.0
  0
CIRCLE
  5
61
330
5D
100
AcDbEntity
  8
IFS_FIBER_OPTICS
100
AcDbCircle
 10
6.130262024876751
 20
1.34260044868966
 30
0.0
 40
0.075
  0
LINE
  5
62
330
5D
100
AcDbEntity
  8
IFS_FIBER_OPTICS
100
AcDbLine
 10
6.085768078650787
 20
1.282224222000333
 30
0.0
 11
6.197157030972128
 21
1.376512956109481
 31
0.0
  0
LINE
  5
63
330
5D
100
AcDbEntity
  8
IFS_FIBER_OPTICS
100
AcDbLine
 10
5.912512946242644
 20
1.638842380263329
 30
0.0
 11
5.912512946242644
 21
1.038842380263329
 31
0.0
  0
LINE
  5
64
330
5D
100
AcDbEntity
  8
IFS_FIBER_OPTICS
100
AcDbLine
 10
6.171900926284887
 20
1.204979947641827
 30
0.0
 11
6.062825983042229
 21
1.109776977488513
 31
0.0
  0
CIRCLE
  5
65
330
5D
100
AcDbEntity
  8
IFS_FIBER_OPTICS
100
AcDbCircle
 10
6.130262024876751
 20
1.14260044868966
 30
0.0
 40
0.075
  0
LINE
  5
66
330
5D
100
AcDbEntity
  8
IFS_FIBER_OPTICS
100
AcDbLine
 10
6.085768078650787
 20
1.082224222000332
 30
0.0
 11
6.197157030972128
 21
1.176512956109481
 31
0.0
  0
LINE
  5
67
330
5D
100
AcDbEntity
  8
POWER_LED
100
AcDbLine
 10
6.130262024876751
 20
1.14260044868966
 30
0.0
 11
6.130262024876751
 21
1.14260044868966
 31
0.0
  0
LINE
  5
68
330
5D
100
AcDbEntity
  8
IFS_FIBER_OPTICS
100
AcDbLine
 10
6.085768078650787
 20
1.482224222000333
 30
0.0
 11
6.197157030972128
 21
1.576512956109481
 31
0.0
  0
LINE
  5
69
330
5D
100
AcDbEntity
  8
IFS_FIBER_OPTICS
100
AcDbLine
 10
6.171900926284887
 20
1.604979947641828
 30
0.0
 11
6.062825983042229
 21
1.509776977488513
 31
0.0
  0
CIRCLE
  5
6A
330
5D
100
AcDbEntity
  8
IFS_FIBER_OPTICS
100
AcDbCircle
 10
6.130262024876751
 20
1.54260044868966
 30
0.0
 40
0.075
  0
LINE
  5
6B
330
5D
100
AcDbEntity
  8
POWER_LED
100
AcDbLine
 10
6.130262024876751
 20
1.34260044868966
 30
0.0
 11
6.130262024876751
 21
1.34260044868966
 31
0.0
  0
LINE
  5
6C
330
5D
100
AcDbEntity
  8
POWER_LED
100
AcDbLine
 10
6.130262024876751
 20
1.54260044868966
 30
0.0
 11
6.130262024876751
 21
1.54260044868966
 31
0.0
  0
LINE
  5
6D
330
5D
100
AcDbEntity
  8
IFS_FIBER_OPTICS
100
AcDbLine
 10
6.272512946242644
 20
1.038842380263329
 30
0.0
 11
6.272512946242644
 21
1.638842380263329
 31
0.0
  0
ENDBLK
  5
6F
330
5D
100
AcDbEntity
  8
0
100
AcDbBlockEnd
  0
BLOCK
  5
83
330
70
100
AcDbEntity
  8
0
100
AcDbBlockBegin
  2
CONN3PP_FRONT
 70
     0
 10
0.0
 20
0.0
 30
0.0
  3
CONN3PP_FRONT
  1

  0
LINE
  5
71
330
70
100
AcDbEntity
  8
0
100
AcDbLine
 10
0.0
 20
0.0
 30
0.0
 11
0.5999999999999997
 21
0.0
 31
0.0
  0
LINE
  5
72
330
70
100
AcDbEntity
  8
0
100
AcDbLine
 10
0.0
 20
0.5999999999999997
 30
0.0
 11
0.5999999999999997
 21
0.5999999999999997
 31
0.0
  0
LINE
  5
73
330
70
100
AcDbEntity
  8
0
100
AcDbLine
 10
0.5
 20
0.0
 30
0.0
 11
0.5
 21
0.5999999999999997
 31
0.0
  0
LINE
  5
74
330
70
100
AcDbEntity
  8
0
100
AcDbLine
 10
0.3399999999999981
 20
0.0371705964088163
 30
0.0
 11
0.3399999999999999
 21
0.1621705964088154
 31
0.0
  0
LINE
  5
75
330
70
100
AcDbEntity
  8
0
100
AcDbLine
 10
0.0
 20
0.5999999999999997
 30
0.0
 11
0.0
 21
0.0
 31
0.0
  0
LINE
  5
76
330
70
100
AcDbEntity
  8
0
100
AcDbLine
 10
0.2199999999999989
 20
0.0
 30
0.0
 11
0.2200000000000006
 21
0.5999999999999997
 31
0.0
  0
MTEXT
  5
77
330
70
100
AcDbEntity
  8
0
100
AcDbMText
 10
0.0332280571534849
 20
0.060409401735301
 30
0.0
 40
0.15
 41
0.071944341700609
 71
     1
 72
     5
  1
{\fArial|b0|i0|c0|p34;1}
 11
0.0000000000000001
 21
1.0
 31
0.0
1001
ACAD
1000
MTEXTBEGIN
1070
    73
1070
     1
1070
    44
1040
1.0
1070
    74
1070
     0
1000
MTEXTEND
  0
LINE
  5
78
330
70
100
AcDbEntity
  8
0
100
AcDbLine
 10
0.2199999999999989
 20
0.0371705964088163
 30
0.0
 11
0.5
 21
0.0371705964088163
 31
0.0
  0
MTEXT
  5
79
330
70
100
AcDbEntity
  8
0
100
AcDbMText
 10
0.0332280571534849
 20
0.4604094017353014
 30
0.0
 40
0.15
 41
0.0719
 71
     1
 72
     5
  1
{\fArial|b0|i0|c0|p34;3}
 11
0.0000000000000001
 21
1.0
 31
0.0
1001
ACAD
1000
MTEXTBEGIN
1070
    73
1070
     1
1070
    44
1040
1.0
1070
    74
1070
     0
1000
MTEXTEND
  0
MTEXT
  5
7A
330
70
100
AcDbEntity
  8
0
100
AcDbMText
 10
0.0332280571534849
 20
0.2604094017353011
 30
0.0
 40
0.15
 41
0.0719
 71
     1
 72
     5
  1
{\fArial|b0|i0|c0|p34;2}
 11
0.0000000000000001
 21
1.0
 31
0.0
1001
ACAD
1000
MTEXTBEGIN
1070
    73
1070
     1
1070
    44
1040
1.0
1070
    74
1070
     0
1000
MTEXTEND
  0
LINE
  5
7B
330
70
100
AcDbEntity
  8
0
100
AcDbLine
 10
0.2199999999999989
 20
0.4371705964088167
 30
0.0
 11
0.5
 21
0.4371705964088167
 31
0.0
  0
LINE
  5
7C
330
70
100
AcDbEntity
  8
0
100
AcDbLine
 10
0.2199999999999989
 20
0.5621705964088158
 30
0.0
 11
0.5
 21
0.5621705964088158
 31
0.0
  0
LINE
  5
7D
330
70
100
AcDbEntity
  8
0
100
AcDbLine
 10
0.2199999999999989
 20
0.2371705964088164
 30
0.0
 11
0.5
 21
0.2371705964088164
 31
0.0
  0
LINE
  5
7E
330
70
100
AcDbEntity
  8
0
100
AcDbLine
 10
0.2199999999999989
 20
0.3621705964088155
 30
0.0
 11
0.5
 21
0.3621705964088155
 31
0.0
  0
LINE
  5
7F
330
70
100
AcDbEntity
  8
0
100
AcDbLine
 10
0.2199999999999989
 20
0.1621705964088154
 30
0.0
 11
0.5
 21
0.1621705964088154
 31
0.0
  0
LINE
  5
80
330
70
100
AcDbEntity
  8
0
100
AcDbLine
 10
0.3399999999999981
 20
0.2371705964088164
 30
0.0
 11
0.3399999999999999
 21
0.3621705964088155
 31
0.0
  0
LINE
  5
81
330
70
100
AcDbEntity
  8
0
100
AcDbLine
 10
0.3399999999999981
 20
0.4371705964088167
 30
0.0
 11
0.3399999999999999
 21
0.5621705964088158
 31
0.0
  0
LINE
  5
82
330
70
100
AcDbEntity
  8
0
100
AcDbLine
 10
0.5999999999999997
 20
0.0
 30
0.0
 11
0.5999999999999997
 21
0.5999999999999997
 31
0.0
  0
ENDBLK
  5
84
330
70
100
AcDbEntity
  8
0
100
AcDbBlockEnd
  0
BLOCK
  5
92
330
85
100
AcDbEntity
  8
0
100
AcDbBlockBegin
  2
R3_SCREW_HEAD
 70
     0
 10
0.0
 20
0.0
 30
0.0
  3
R3_SCREW_HEAD
  1

  0
CIRCLE
  5
86
330
85
100
AcDbEntity
  8
0
100
AcDbCircle
 10
0.5
 20
4.936499999999999
 30
0.0
 40
0.1
  0
LINE
  5
87
330
85
100
AcDbEntity
  8
IFS_FIBER_OPTICS
100
AcDbLine
 10
0.4133974596215566
 20
4.826499999999999
 30
0.0
 11
0.5866025403784434
 21
4.826499999999999
 31
0.0
  0
LINE
  5
88
330
85
100
AcDbEntity
  8
IFS_FIBER_OPTICS
100
AcDbLine
 10
0.4133974596215566
 20
5.046499999999999
 30
0.0
 11
0.5866025403784434
 21
5.046499999999999
 31
0.0
  0
ARC
  5
89
330
85
100
AcDbEntity
  8
0
100
AcDbCircle
 10
0.5
 20
4.936499999999999
 30
0.0
 40
0.14
100
AcDbArc
 50
128.213210701738
 51
231.7867892982618
  0
ARC
  5
8A
330
85
100
AcDbEntity
  8
0
100
AcDbCircle
 10
0.5
 20
4.936499999999999
 30
0.0
 40
0.14
100
AcDbArc
 50
308.213210701738
 51
51.78678929826198
  0
LWPOLYLINE
  5
8B
330
85
100
AcDbEntity
  8
0
100
AcDbPolyline
 90
        2
 70
     0
 43
0.01
 10
0.4293126516414816
 20
5.005544342113727
 10
0.5651276523879006
 20
4.861106790713638
  0
LINE
  5
8C
330
85
100
AcDbEntity
  8
IFS_FIBER_OPTICS
100
AcDbLine
 10
0.4133974596215566
 20
0.2284999999999994
 30
0.0
 11
0.5866025403784434
 21
0.2284999999999996
 31
0.0
  0
LINE
  5
8D
330
85
100
AcDbEntity
  8
IFS_FIBER_OPTICS
100
AcDbLine
 10
0.4133974596215566
 20
0.0084999999999994
 30
0.0
 11
0.5866025403784434
 21
0.0084999999999994
 31
0.0
  0
CIRCLE
  5
8E
330
85
100
AcDbEntity
  8
0
100
AcDbCircle
 10
0.5
 20
0.1184999999999993
 30
0.0
 40
0.1
  0
ARC
  5
8F
330
85
100
AcDbEntity
  8
0
100
AcDbCircle
 10
0.5
 20
0.1184999999999993
 30
0.0
 40
0.14
100
AcDbArc
 50
128.213210701738
 51
231.7867892982618
  0
ARC
  5
90
330
85
100
AcDbEntity
  8
0
100
AcDbCircle
 10
0.5
 20
0.1184999999999993
 30
0.0
 40
0.14
100
AcDbArc
 50
308.213210701738
 51
51.78678929826198
  0
LWPOLYLINE
  5
91
330
85
100
AcDbEntity
  8
0
100
AcDbPolyline
 90
        2
 70
     0
 43
0.01
 10
0.4293126516414816
 20
0.1875443421137267
 10
0.5651276523879006
 20
0.0431067907136386
  0
ENDBLK
  5
93
330
85
100
AcDbEntity
  8
0
100
AcDbBlockEnd
  0
BLOCK
  5
98
330
94
100
AcDbEntity
  8
0
100
AcDbBlockBegin
  2
R3_1_INCH_REAR_SCREW
 70
     0
 10
0.0
 20
0.0
 30
0.0
  3
R3_1_INCH_REAR_SCREW
  1

  0
LWPOLYLINE
  5
95
330
94
100
AcDbEntity
  8
IFS_FIBER_OPTICS
100
AcDbPolyline
 90
        4
 70
     1
 43
0.0
 10
0.3825000000000003
 20
0.0519999999999996
 10
0.6174999999999998
 20
0.0519999999999996
 10
0.6174999999999998
 20
0.1849999999999987
 10
0.3825000000000003
 20
0.1849999999999987
  0
LWPOLYLINE
  5
96
330
94
100
AcDbEntity
  8
IFS_FIBER_OPTICS
100
AcDbPolyline
 90
        4
 70
     1
 43
0.0
 10
0.3825000000000003
 20
5.003
 10
0.6174999999999998
 20
5.003
 10
0.6174999999999998
 20
4.87
 10
0.3825000000000003
 20
4.87
  0
LWPOLYLINE
  5
97
330
94
100
AcDbEntity
  8
IFS_FIBER_OPTICS
100
AcDbPolyline
 90
        2
 70
     1
 43
0.0375
 10
0.4812499999999993
 20
4.936499999999998
 42
1.0
 10
0.5187500000000007
 20
4.936499999999998
 42
1.0
  0
ENDBLK
  5
99
330
94
100
AcDbEntity
  8
0
100
AcDbBlockEnd
  0
BLOCK
  5
22D
330
222
100
AcDbEntity
  8
0
100
AcDbBlockBegin
  2
*D8
 70
     1
 10
0.0
 20
0.0
 30
0.0
  3
*D8
  1

  0
LINE
  5
230
330
222
100
AcDbEntity
  8
0
 62
     0
100
AcDbLine
 10
9.120249217713185
 20
7.169471574295552
 30
0.0
 11
10.09279839564149
 21
7.169471574295551
 31
0.0
  0
LINE
  5
231
330
222
100
AcDbEntity
  8
0
 62
     0
100
AcDbLine
 10
9.120249217713185
 20
2.069471574295551
 30
0.0
 11
10.09279839564149
 21
2.069471574295551
 31
0.0
  0
LINE
  5
232
330
222
100
AcDbEntity
  8
0
 62
     0
100
AcDbLine
 10
9.912798395641496
 20
6.989471574295552
 30
0.0
 11
9.912798395641496
 21
4.799471574295552
 31
0.0
  0
LINE
  5
233
330
222
100
AcDbEntity
  8
0
 62
     0
100
AcDbLine
 10
9.912798395641495
 20
2.249471574295551
 30
0.0
 11
9.912798395641496
 21
4.439471574295552
 31
0.0
  0
SOLID
  5
234
330
222
100
AcDbEntity
  8
0
 62
     0
100
AcDbTrace
 10
9.882798395641497
 20
6.989471574295552
 30
0.0
 11
9.942798395641496
 21
6.989471574295552
 31
0.0
 12
9.912798395641496
 22
7.169471574295552
 32
0.0
 13
9.912798395641496
 23
7.169471574295552
 33
0.0
  0
SOLID
  5
235
330
222
100
AcDbEntity
  8
0
 62
     0
100
AcDbTrace
 10
9.882798395641495
 20
2.249471574295551
 30
0.0
 11
9.942798395641494
 21
2.249471574295551
 31
0.0
 12
9.912798395641495
 22
2.069471574295551
 32
0.0
 13
9.912798395641495
 23
2.069471574295551
 33
0.0
  0
MTEXT
  5
236
330
222
100
AcDbEntity
  8
0
 62
     0
100
AcDbMText
 10
9.912798395641495
 20
4.619471574295553
 30
0.0
 40
0.18
 41
0.0
 71
     5
 72
     1
  1
\A1;5.1000
1001
ACAD
1000
MTEXTBEGIN
1070
    73
1070
     1
1070
    44
1040
1.0
1070
    74
1070
     0
1000
MTEXTEND
  0
POINT
  5
237
330
222
100
AcDbEntity
  8
DEFPOINTS
 62
     0
100
AcDbPoint
 10
9.057749217713185
 20
7.169471574295552
 30
0.0
  0
POINT
  5
238
330
222
100
AcDbEntity
  8
DEFPOINTS
 62
     0
100
AcDbPoint
 10
9.057749217713185
 20
2.069471574295551
 30
0.0
  0
POINT
  5
239
330
222
100
AcDbEntity
  8
DEFPOINTS
 62
     0
100
AcDbPoint
 10
9.912798395641495
 20
2.069471574295551
 30
0.0
  0
ENDBLK
  5
22E
330
222
100
AcDbEntity
  8
0
100
AcDbBlockEnd
  0
BLOCK
  5
247
330
23C
100
AcDbEntity
  8
0
100
AcDbBlockBegin
  2
*D9
 70
     1
 10
0.0
 20
0.0
 30
0.0
  3
*D9
  1

  0
LINE
  5
24A
330
23C
100
AcDbEntity
  8
0
 62
     0
100
AcDbLine
 10
2.027749217713185
 20
7.231971574295552
 30
0.0
 11
2.027749217713185
 21
7.940505087070253
 31
0.0
  0
LINE
  5
24B
330
23C
100
AcDbEntity
  8
0
 62
     0
100
AcDbLine
 10
9.057749217713185
 20
7.231971574295552
 30
0.0
 11
9.057749217713185
 21
7.940505087070253
 31
0.0
  0
LINE
  5
24C
330
23C
100
AcDbEntity
  8
0
 62
     0
100
AcDbLine
 10
2.207749217713185
 20
7.760505087070253
 30
0.0
 11
5.047749217713185
 21
7.760505087070253
 31
0.0
  0
LINE
  5
24D
330
23C
100
AcDbEntity
  8
0
 62
     0
100
AcDbLine
 10
8.877749217713185
 20
7.760505087070253
 30
0.0
 11
6.037749217713185
 21
7.760505087070253
 31
0.0
  0
SOLID
  5
24E
330
23C
100
AcDbEntity
  8
0
 62
     0
100
AcDbTrace
 10
2.207749217713185
 20
7.790505087070253
 30
0.0
 11
2.207749217713185
 21
7.730505087070253
 31
0.0
 12
2.027749217713185
 22
7.760505087070253
 32
0.0
 13
2.027749217713185
 23
7.760505087070253
 33
0.0
  0
SOLID
  5
24F
330
23C
100
AcDbEntity
  8
0
 62
     0
100
AcDbTrace
 10
8.877749217713185
 20
7.790505087070253
 30
0.0
 11
8.877749217713185
 21
7.730505087070253
 31
0.0
 12
9.057749217713185
 22
7.760505087070253
 32
0.0
 13
9.057749217713185
 23
7.760505087070253
 33
0.0
  0
MTEXT
  5
250
330
23C
100
AcDbEntity
  8
0
 62
     0
100
AcDbMText
 10
5.542749217713185
 20
7.760505087070253
 30
0.0
 40
0.18
 41
0.0
 71
     5
 72
     1
  1
\A1;7.0300
1001
ACAD
1000
MTEXTBEGIN
1070
    73
1070
     1
1070
    44
1040
1.0
1070
    74
1070
     0
1000
MTEXTEND
  0
POINT
  5
251
330
23C
100
AcDbEntity
  8
DEFPOINTS
 62
     0
100
AcDbPoint
 10
2.027749217713185
 20
7.169471574295552
 30
0.0
  0
POINT
  5
252
330
23C
100
AcDbEntity
  8
DEFPOINTS
 62
     0
100
AcDbPoint
 10
9.057749217713185
 20
7.169471574295552
 30
0.0
  0
POINT
  5
253
330
23C
100
AcDbEntity
  8
DEFPOINTS
 62
     0
100
AcDbPoint
 10
9.057749217713185
 20
7.760505087070253
 30
0.0
  0
ENDBLK
  5
248
330
23C
100
AcDbEntity
  8
0
100
AcDbBlockEnd
  0
BLOCK
  5
261
330
256
100
AcDbEntity
  8
0
100
AcDbBlockBegin
  2
*D10
 70
     1
 10
0.0
 20
0.0
 30
0.0
  3
*D10
  1

  0
LINE
  5
264
330
256
100
AcDbEntity
  8
0
 62
     0
100
AcDbLine
 10
2.787005121609004
 20
7.043176722130715
 30
0.0
 11
2.787005121609004
 21
7.575747477939582
 31
0.0
  0
LINE
  5
265
330
256
100
AcDbEntity
  8
0
 62
     0
100
AcDbLine
 10
8.287005121609004
 20
7.043176722130715
 30
0.0
 11
8.287005121609004
 21
7.575747477939582
 31
0.0
  0
LINE
  5
266
330
256
100
AcDbEntity
  8
0
 62
     0
100
AcDbLine
 10
2.967005121609004
 20
7.395747477939583
 30
0.0
 11
5.042005121609004
 21
7.395747477939583
 31
0.0
  0
LINE
  5
267
330
256
100
AcDbEntity
  8
0
 62
     0
100
AcDbLine
 10
8.107005121609004
 20
7.395747477939583
 30
0.0
 11
6.032005121609004
 21
7.395747477939583
 31
0.0
  0
SOLID
  5
268
330
256
100
AcDbEntity
  8
0
 62
     0
100
AcDbTrace
 10
2.967005121609004
 20
7.425747477939583
 30
0.0
 11
2.967005121609004
 21
7.365747477939582
 31
0.0
 12
2.787005121609004
 22
7.395747477939583
 32
0.0
 13
2.787005121609004
 23
7.395747477939583
 33
0.0
  0
SOLID
  5
269
330
256
100
AcDbEntity
  8
0
 62
     0
100
AcDbTrace
 10
8.107005121609004
 20
7.425747477939583
 30
0.0
 11
8.107005121609004
 21
7.365747477939582
 31
0.0
 12
8.287005121609004
 22
7.395747477939583
 32
0.0
 13
8.287005121609004
 23
7.395747477939583
 33
0.0
  0
MTEXT
  5
26A
330
256
100
AcDbEntity
  8
0
 62
     0
100
AcDbMText
 10
5.537005121609004
 20
7.395747477939583
 30
0.0
 40
0.18
 41
0.0
 71
     5
 72
     1
  1
\A1;5.5000
1001
ACAD
1000
MTEXTBEGIN
1070
    73
1070
     1
1070
    44
1040
1.0
1070
    74
1070
     0
1000
MTEXTEND
  0
POINT
  5
26B
330
256
100
AcDbEntity
  8
DEFPOINTS
 62
     0
100
AcDbPoint
 10
2.787005121609004
 20
6.980676722130715
 30
0.0
  0
POINT
  5
26C
330
256
100
AcDbEntity
  8
DEFPOINTS
 62
     0
100
AcDbPoint
 10
8.287005121609004
 20
6.980676722130715
 30
0.0
  0
POINT
  5
26D
330
256
100
AcDbEntity
  8
DEFPOINTS
 62
     0
100
AcDbPoint
 10
8.287005121609004
 20
7.395747477939583
 30
0.0
  0
ENDBLK
  5
262
330
256
100
AcDbEntity
  8
0
100
AcDbBlockEnd
  0
BLOCK
  5
2D4
330
2D3
100
AcDbEntity
  8
0
100
AcDbBlockBegin
  2
4671
 70
     0
 10
0.0
 20
0.0
 30
0.0
  3
4671
  1

  0
DIMENSION
  5
2D6
102
{ACAD_XDICTIONARY
360
2D7
102
}
102
{ACAD_REACTORS
330
2D8
102
}
330
2D3
100
AcDbEntity
  8
0
100
AcDbDimension
  2
*D8
 10
9.912798395641495
 20
2.069471574295551
 30
0.0
 11
9.912798395641495
 21
4.619471574295553
 31
0.0
  3
STANDARD
100
AcDbAlignedDimension
 13
9.057749217713185
 23
7.169471574295552
 33
0.0
 14
9.057749217713185
 24
2.069471574295551
 34
0.0
 50
90.0
100
AcDbRotatedDimension
  0
LINE
  5
2D9
330
2D3
100
AcDbEntity
  8
0
100
AcDbLine
 10
9.42070990946298
 20
6.162111395165062
 30
0.0
 11
9.056549319224551
 21
6.162111395165062
 31
0.0
  0
LINE
  5
2DA
330
2D3
100
AcDbEntity
  8
IFS_FIBER_OPTICS
100
AcDbLine
 10
9.233965041871122
 20
5.997492798125244
 30
0.0
 11
9.345353994192464
 21
6.091781532234392
 31
0.0
  0
LINE
  5
2DB
330
2D3
100
AcDbEntity
  8
IFS_FIBER_OPTICS
100
AcDbLine
 10
9.320097889505223
 20
6.120248523766739
 30
0.0
 11
9.211022946262565
 21
6.025045553613424
 31
0.0
  0
CIRCLE
  5
2DC
330
2D3
100
AcDbEntity
  8
IFS_FIBER_OPTICS
100
AcDbCircle
 10
9.278458988097087
 20
6.057869024814571
 30
0.0
 40
0.075
  0
CIRCLE
  5
2DD
330
2D3
100
AcDbEntity
  8
IFS_FIBER_OPTICS
100
AcDbCircle
 10
9.278458988097087
 20
5.874350574793097
 30
0.0
 40
0.075
  0
LINE
  5
2DE
330
2D3
100
AcDbEntity
  8
IFS_FIBER_OPTICS
100
AcDbLine
 10
9.320097889505223
 20
5.936730073745264
 30
0.0
 11
9.211022946262565
 21
5.84152710359195
 31
0.0
  0
LINE
  5
2DF
330
2D3
100
AcDbEntity
  8
IFS_FIBER_OPTICS
100
AcDbLine
 10
9.233965041871122
 20
5.813974348103769
 30
0.0
 11
9.345353994192464
 21
5.908263082212918
 31
0.0
  0
LINE
  5
2E0
330
2D3
100
AcDbEntity
  8
IFS_FIBER_OPTICS
100
AcDbLine
 10
9.233965041871122
 20
5.413974348103769
 30
0.0
 11
9.345353994192464
 21
5.508263082212917
 31
0.0
  0
CIRCLE
  5
2E1
330
2D3
100
AcDbEntity
  8
IFS_FIBER_OPTICS
100
AcDbCircle
 10
9.278458988097087
 20
5.474350574793096
 30
0.0
 40
0.075
  0
LINE
  5
2E2
330
2D3
100
AcDbEntity
  8
IFS_FIBER_OPTICS
100
AcDbLine
 10
9.320097889505223
 20
5.536730073745264
 30
0.0
 11
9.211022946262565
 21
5.441527103591949
 31
0.0
  0
LINE
  5
2E3
330
2D3
100
AcDbEntity
  8
IFS_FIBER_OPTICS
100
AcDbLine
 10
9.233965041871122
 20
5.613974348103769
 30
0.0
 11
9.345353994192464
 21
5.708263082212917
 31
0.0
  0
CIRCLE
  5
2E4
330
2D3
100
AcDbEntity
  8
IFS_FIBER_OPTICS
100
AcDbCircle
 10
9.278458988097087
 20
5.674350574793097
 30
0.0
 40
0.075
  0
LINE
  5
2E5
330
2D3
100
AcDbEntity
  8
IFS_FIBER_OPTICS
100
AcDbLine
 10
9.320097889505223
 20
5.736730073745264
 30
0.0
 11
9.211022946262565
 21
5.64152710359195
 31
0.0
  0
LINE
  5
2E6
330
2D3
100
AcDbEntity
  8
IFS_FIBER_OPTICS
100
AcDbLine
 10
9.06070990946298
 20
5.370592506366766
 30
0.0
 11
9.42070990946298
 21
5.370592506366766
 31
0.0
  0
INSERT
  5
2E7
330
2D3
100
AcDbEntity
  8
IFS_FIBER_OPTICS
100
AcDbBlockReference
  2
LARGE_2_PIN
 10
3.531345402496809
 20
2.400525524592818
 30
0.0
  0
LINE
  5
2E8
102
{ACAD_REACTORS
330
2D8
330
30E
102
}
330
2D3
100
AcDbEntity
  8
IFS_FIBER_OPTICS
100
AcDbLine
 10
9.057749217713185
 20
2.069471574295551
 30
0.0
 11
9.057749217713185
 21
7.169471574295552
 31
0.0
  0
LINE
  5
2E9
102
{ACAD_REACTORS
330
30E
102
}
330
2D3
100
AcDbEntity
  8
IFS_FIBER_OPTICS
100
AcDbLine
 10
2.027749217713185
 20
7.169471574295552
 30
0.0
 11
2.027749217713186
 21
2.069471574295551
 31
0.0
  0
MTEXT
  5
2EA
330
2D3
100
AcDbEntity
  8
0
100
AcDbMText
 10
3.023025649913044
 20
1.415258285333955
 30
0.0
 40
0.2
 41
5.0903
 71
     1
 72
     5
  1
LTC 4671 TRANSCEIVER\P  STAND ALONE UNIT
1001
ACAD
1000
MTEXTBEGIN
1070
    73
1070
     1
1070
    44
1040
1.0
1070
    74
1070
     0
1000
MTEXTEND
  0
LINE
  5
2EB
330
2D3
100
AcDbEntity
  8
IFS_FIBER_OPTICS
100
AcDbLine
 10
2.027749217713186
 20
2.569471574295551
 30
0.0
 11
9.057749217713185
 21
2.569471574295551
 31
0.0
  0
LINE
  5
2EC
330
2D3
100
AcDbEntity
  8
IFS_FIBER_OPTICS
100
AcDbLine
 10
2.027749217713186
 20
2.069471574295551
 30
0.0
 11
9.057749217713185
 21
2.069471574295551
 31
0.0
  0
ARC
  5
2ED
330
2D3
100
AcDbEntity
  8
IFS_FIBER_OPTICS
100
AcDbCircle
 10
2.787005121609004
 20
2.280676722130714
 30
0.0
 40
0.14
100
AcDbArc
 50
33.85843665945611
 51
146.1415633405438
  0
ARC
  5
2EE
330
2D3
100
AcDbEntity
  8
IFS_FIBER_OPTICS
100
AcDbCircle
 10
2.787005121609004
 20
2.280676722130714
 30
0.0
 40
0.14
100
AcDbArc
 50
213.8584366594589
 51
326.1415633405438
  0
ARC
  5
2EF
330
2D3
100
AcDbEntity
  8
IFS_FIBER_OPTICS
100
AcDbCircle
 10
2.537005121609004
 20
2.280676722130714
 30
0.0
 40
0.078
100
AcDbArc
 50
90.0
 51
270.0
  0
LINE
  5
2F0
330
2D3
100
AcDbEntity
  8
IFS_FIBER_OPTICS
100
AcDbLine
 10
2.537005121609004
 20
2.202676722130714
 30
0.0
 11
2.670746788574335
 21
2.202676722130714
 31
0.0
  0
LINE
  5
2F1
330
2D3
100
AcDbEntity
  8
IFS_FIBER_OPTICS
100
AcDbLine
 10
2.537005121609005
 20
2.358676722130715
 30
0.0
 11
2.670746788574335
 21
2.358676722130715
 31
0.0
  0
ARC
  5
2F2
330
2D3
100
AcDbEntity
  8
IFS_FIBER_OPTICS
100
AcDbCircle
 10
3.037005121609004
 20
2.280676722130714
 30
0.0
 40
0.078
100
AcDbArc
 50
270.0
 51
90.0
  0
LINE
  5
2F3
330
2D3
100
AcDbEntity
  8
IFS_FIBER_OPTICS
100
AcDbLine
 10
2.903263454643672
 20
2.202676722130714
 30
0.0
 11
3.037005121609004
 21
2.202676722130714
 31
0.0
  0
LINE
  5
2F4
330
2D3
100
AcDbEntity
  8
IFS_FIBER_OPTICS
100
AcDbLine
 10
2.903263454643672
 20
2.358676722130715
 30
0.0
 11
3.037005121609005
 21
2.358676722130716
 31
0.0
  0
MTEXT
  5
2F5
330
2D3
100
AcDbEntity
  8
IFS_FIBER_OPTICS
100
AcDbMText
 10
8.881654989633524
 20
3.148720803972605
 30
0.0
 40
0.1
 41
0.160675164440798
 71
     4
 72
     5
  1
{\fArial|b0|i0|c0|p34;-1}
1001
ACAD
1000
MTEXTBEGIN
1070
    73
1070
     1
1070
    44
1040
1.0
1070
    74
1070
     0
1000
MTEXTEND
  0
LWPOLYLINE
  5
2F6
330
2D3
100
AcDbEntity
  8
IFS_FIBER_OPTICS
100
AcDbPolyline
 90
        4
 70
     0
 43
0.01
 10
7.960062680797681
 20
3.251909926266609
 10
8.060062680797681
 20
3.251909926266609
 10
8.060062680797681
 20
3.001909926266609
 10
8.210062680797681
 20
3.001909926266609
  0
MTEXT
  5
2F7
330
2D3
100
AcDbEntity
  8
IFS_FIBER_OPTICS
100
AcDbMText
 10
8.820335943936225
 20
3.148720803972605
 30
0.0
 40
0.1
 41
0.85
 71
     6
 72
     5
  1
{\fArial|b0|i0|c0|p34;+12 VDC}
1001
ACAD
1000
MTEXTBEGIN
1070
    73
1070
     1
1070
    44
1040
1.0
1070
    74
1070
     0
1000
MTEXTEND
  0
ARC
  5
2F8
330
2D3
100
AcDbEntity
  8
IFS_FIBER_OPTICS
100
AcDbCircle
 10
8.287005121609004
 20
2.280676722130714
 30
0.0
 40
0.14
100
AcDbArc
 50
33.85843665945611
 51
146.1415633405438
  0
ARC
  5
2F9
330
2D3
100
AcDbEntity
  8
IFS_FIBER_OPTICS
100
AcDbCircle
 10
8.537005121609004
 20
2.280676722130714
 30
0.0
 40
0.078
100
AcDbArc
 50
270.0
 51
90.0
  0
ARC
  5
2FA
330
2D3
100
AcDbEntity
  8
IFS_FIBER_OPTICS
100
AcDbCircle
 10
8.287005121609004
 20
2.280676722130714
 30
0.0
 40
0.14
100
AcDbArc
 50
213.8584366594589
 51
326.1415633405438
  0
ARC
  5
2FB
330
2D3
100
AcDbEntity
  8
IFS_FIBER_OPTICS
100
AcDbCircle
 10
8.037005121609004
 20
2.280676722130714
 30
0.0
 40
0.078
100
AcDbArc
 50
90.0
 51
270.0
  0
LINE
  5
2FC
330
2D3
100
AcDbEntity
  8
IFS_FIBER_OPTICS
100
AcDbLine
 10
8.037005121609004
 20
2.202676722130714
 30
0.0
 11
8.170746788574335
 21
2.202676722130714
 31
0.0
  0
LINE
  5
2FD
330
2D3
100
AcDbEntity
  8
IFS_FIBER_OPTICS
100
AcDbLine
 10
8.037005121609006
 20
2.358676722130715
 30
0.0
 11
8.170746788574335
 21
2.358676722130715
 31
0.0
  0
LINE
  5
2FE
330
2D3
100
AcDbEntity
  8
IFS_FIBER_OPTICS
100
AcDbLine
 10
8.403263454643672
 20
2.202676722130714
 30
0.0
 11
8.537005121609004
 21
2.202676722130714
 31
0.0
  0
LINE
  5
2FF
330
2D3
100
AcDbEntity
  8
IFS_FIBER_OPTICS
100
AcDbLine
 10
8.403263454643672
 20
2.358676722130715
 30
0.0
 11
8.537005121609006
 21
2.358676722130716
 31
0.0
  0
LINE
  5
300
330
2D3
100
AcDbEntity
  8
IFS_FIBER_OPTICS
100
AcDbLine
 10
9.050335943936225
 20
2.569471574295551
 30
0.0
 11
8.550335943936225
 21
2.569471574295551
 31
0.0
  0
MTEXT
  5
301
330
2D3
100
AcDbEntity
  8
IFS_FIBER_OPTICS
100
AcDbMText
 10
7.695155868711026
 20
3.258800858727477
 30
0.0
 40
0.1
 41
1.0076
 71
     5
 72
     5
  1
{\fArial|b0|i0|c0|p34;POWER}
1001
ACAD
1000
MTEXTBEGIN
1070
    73
1070
     1
1070
    44
1040
1.0
1070
    74
1070
     0
1000
MTEXTEND
  0
LWPOLYLINE
  5
302
330
2D3
100
AcDbEntity
  8
IFS_FIBER_OPTICS
100
AcDbPolyline
 90
        4
 70
     0
 43
0.01
 10
7.960062680797681
 20
3.251909926266609
 10
8.060062680797681
 20
3.251909926266609
 10
8.060062680797681
 20
3.501909926266609
 10
8.210062680797681
 20
3.501909926266609
  0
LINE
  5
303
330
2D3
100
AcDbEntity
  8
0
100
AcDbLine
 10
8.555540864863409
 20
3.349826784103314
 30
0.0
 11
8.555540864863409
 21
3.301028041928912
 31
0.0
  0
MTEXT
  5
304
330
2D3
100
AcDbEntity
  8
IFS_FIBER_OPTICS
100
AcDbMText
 10
8.881654989633524
 20
3.348720803972605
 30
0.0
 40
0.1
 41
0.1607
 71
     4
 72
     5
  1
{\fArial|b0|i0|c0|p34;-2}
1001
ACAD
1000
MTEXTBEGIN
1070
    73
1070
     1
1070
    44
1040
1.0
1070
    74
1070
     0
1000
MTEXTEND
  0
LINE
  5
305
330
2D3
100
AcDbEntity
  8
0
100
AcDbLine
 10
8.588102869217692
 20
3.382359270530074
 30
0.0
 11
8.588102869217692
 21
3.268495530433639
 31
0.0
  0
LINE
  5
306
330
2D3
100
AcDbEntity
  8
0
100
AcDbLine
 10
8.628805304689912
 20
3.333560528355675
 30
0.0
 11
8.628805304689912
 21
3.244096171880698
 31
0.0
  0
LINE
  5
307
330
2D3
100
AcDbEntity
  8
0
100
AcDbLine
 10
8.799755664285093
 20
3.333560528355675
 30
0.0
 11
8.628805304689912
 21
3.333560528355675
 31
0.0
  0
LINE
  5
308
330
2D3
100
AcDbEntity
  8
0
100
AcDbLine
 10
8.628805304689912
 20
3.333560528355675
 30
0.0
 11
8.628805304689912
 21
3.423024884830653
 31
0.0
  0
DIMENSION
  5
309
102
{ACAD_XDICTIONARY
360
30A
102
}
102
{ACAD_REACTORS
330
30B
102
}
330
2D3
100
AcDbEntity
  8
0
100
AcDbDimension
  2
*D10
 10
8.287005121609004
 20
7.395747477939583
 30
0.0
 11
5.537005121609004
 21
7.395747477939583
 31
0.0
  3
STANDARD
100
AcDbAlignedDimension
 13
2.787005121609004
 23
6.980676722130715
 33
0.0
 14
8.287005121609004
 24
6.980676722130715
 34
0.0
100
AcDbRotatedDimension
  0
DIMENSION
  5
30C
102
{ACAD_XDICTIONARY
360
30D
102
}
102
{ACAD_REACTORS
330
30E
102
}
330
2D3
100
AcDbEntity
  8
0
100
AcDbDimension
  2
*D9
 10
9.057749217713185
 20
7.760505087070253
 30
0.0
 11
5.542749217713185
 21
7.760505087070253
 31
0.0
  3
STANDARD
100
AcDbAlignedDimension
 13
2.027749217713185
 23
7.169471574295552
 33
0.0
 14
9.057749217713185
 24
7.169471574295552
 34
0.0
100
AcDbRotatedDimension
  0
LINE
  5
30F
330
2D3
100
AcDbEntity
  8
IFS_FIBER_OPTICS
100
AcDbLine
 10
9.057749217713185
 20
7.169471574295552
 30
0.0
 11
2.027749217713185
 21
7.169471574295552
 31
0.0
  0
LINE
  5
310
330
2D3
100
AcDbEntity
  8
IFS_FIBER_OPTICS
100
AcDbLine
 10
9.057749217713185
 20
6.669471574295552
 30
0.0
 11
2.027749217713185
 21
6.669471574295552
 31
0.0
  0
LWPOLYLINE
  5
311
330
2D3
100
AcDbEntity
  8
IFS_FIBER_OPTICS
100
AcDbPolyline
 90
        4
 70
     0
 43
0.01
 10
2.102749217713185
 20
6.159471574295552
 10
2.252749217713185
 20
6.159471574295552
 10
2.252749217713184
 20
5.509471574295552
 10
2.102749217713185
 20
5.509471574295552
  0
MTEXT
  5
312
330
2D3
100
AcDbEntity
  8
IFS_FIBER_OPTICS
100
AcDbMText
 10
2.336497518204155
 20
5.837832846239637
 30
0.0
 40
0.1
 41
1.0766
 71
     4
 72
     5
  1
{\fArial|b0|i0|c0|p34;DATA\PREC}
1001
ACAD
1000
MTEXTBEGIN
1070
    73
1070
     1
1070
    44
1040
1.0
1070
    74
1070
     0
1000
MTEXTEND
  0
INSERT
  5
313
330
2D3
100
AcDbEntity
  8
IFS_FIBER_OPTICS
100
AcDbBlockReference
  2
ST_CONN
 10
7.622965354404183
 20
2.325009436352023
 30
0.0
 41
-1.0
  0
INSERT
  5
314
330
2D3
100
AcDbEntity
  8
IFS_FIBER_OPTICS
100
AcDbBlockReference
  2
ST_CONN
 10
7.622965354404183
 20
1.605009436352023
 30
0.0
 41
-1.0
  0
LWPOLYLINE
  5
315
330
2D3
100
AcDbEntity
  8
IFS_FIBER_OPTICS
100
AcDbPolyline
 90
        4
 70
     0
 43
0.01
 10
2.102749217713185
 20
5.439471574295552
 10
2.252749217713184
 20
5.439471574295552
 10
2.252749217713184
 20
4.789471574295552
 10
2.102749217713185
 20
4.789471574295552
  0
MTEXT
  5
316
330
2D3
100
AcDbEntity
  8
IFS_FIBER_OPTICS
100
AcDbMText
 10
2.336497518204155
 20
5.117832846239636
 30
0.0
 40
0.1
 41
1.0766
 71
     4
 72
     5
  1
{\fArial|b0|i0|c0|p34;DATA\PXTMR}
1001
ACAD
1000
MTEXTBEGIN
1070
    73
1070
     1
1070
    44
1040
1.0
1070
    74
1070
     0
1000
MTEXTEND
  0
MTEXT
  5
317
330
2D3
100
AcDbEntity
  8
IFS_FIBER_OPTICS
100
AcDbMText
 10
2.105164476636246
 20
4.671138786616166
 30
0.0
 40
0.1
 41
1.4435
 71
     1
 72
     5
  1
{\fArial|b0|i0|c0|p34;POWER}
1001
ACAD
1000
MTEXTBEGIN
1070
    73
1070
     1
1070
    44
1040
1.0
1070
    74
1070
     0
1000
MTEXTEND
  0
ARC
  5
318
330
2D3
100
AcDbEntity
  8
IFS_FIBER_OPTICS
100
AcDbCircle
 10
2.787005121609004
 20
6.980676722130715
 30
0.0
 40
0.14
100
AcDbArc
 50
33.85843665945611
 51
146.1415633405438
  0
ARC
  5
319
102
{ACAD_REACTORS
330
30B
102
}
330
2D3
100
AcDbEntity
  8
IFS_FIBER_OPTICS
100
AcDbCircle
 10
2.787005121609004
 20
6.980676722130715
 30
0.0
 40
0.14
100
AcDbArc
 50
213.8584366594589
 51
326.1415633405438
  0
ARC
  5
31A
330
2D3
100
AcDbEntity
  8
IFS_FIBER_OPTICS
100
AcDbCircle
 10
2.537005121609004
 20
6.980676722130715
 30
0.0
 40
0.078
100
AcDbArc
 50
90.0
 51
270.0
  0
LINE
  5
31B
330
2D3
100
AcDbEntity
  8
IFS_FIBER_OPTICS
100
AcDbLine
 10
2.537005121609004
 20
6.902676722130714
 30
0.0
 11
2.670746788574335
 21
6.902676722130714
 31
0.0
  0
LINE
  5
31C
330
2D3
100
AcDbEntity
  8
IFS_FIBER_OPTICS
100
AcDbLine
 10
2.537005121609005
 20
7.058676722130715
 30
0.0
 11
2.670746788574335
 21
7.058676722130715
 31
0.0
  0
ARC
  5
31D
330
2D3
100
AcDbEntity
  8
IFS_FIBER_OPTICS
100
AcDbCircle
 10
3.037005121609004
 20
6.980676722130715
 30
0.0
 40
0.078
100
AcDbArc
 50
270.0
 51
90.0
  0
LINE
  5
31E
330
2D3
100
AcDbEntity
  8
IFS_FIBER_OPTICS
100
AcDbLine
 10
2.903263454643672
 20
6.902676722130714
 30
0.0
 11
3.037005121609004
 21
6.902676722130714
 31
0.0
  0
LINE
  5
31F
330
2D3
100
AcDbEntity
  8
IFS_FIBER_OPTICS
100
AcDbLine
 10
2.903263454643672
 20
7.058676722130715
 30
0.0
 11
3.037005121609005
 21
7.058676722130716
 31
0.0
  0
MTEXT
  5
320
330
2D3
100
AcDbEntity
  8
IFS_FIBER_OPTICS
100
AcDbMText
 10
5.677085300321401
 20
6.313402504094493
 30
0.0
 40
0.1
 41
4.245899999999999
 71
     5
 72
     5
  1
{\fArial|b0|i0|c0|p34;LTC 4671\PRS485}
1001
ACAD
1000
MTEXTBEGIN
1070
    73
1070
     1
1070
    44
1040
1.0
1070
    74
1070
     0
1000
MTEXTEND
  0
LINE
  5
321
330
2D3
100
AcDbEntity
  8
IFS_FIBER_OPTICS
100
AcDbLine
 10
9.06070990946298
 20
5.970592506366766
 30
0.0
 11
9.06070990946298
 21
5.370592506366766
 31
0.0
  0
MTEXT
  5
322
330
2D3
100
AcDbEntity
  8
IFS_FIBER_OPTICS
100
AcDbMText
 10
8.881654989633524
 20
5.878720803972606
 30
0.0
 40
0.1
 41
0.1607
 71
     4
 72
     5
  1
{\fArial|b0|i0|c0|p34;-3}
1001
ACAD
1000
MTEXTBEGIN
1070
    73
1070
     1
1070
    44
1040
1.0
1070
    74
1070
     0
1000
MTEXTEND
  0
MTEXT
  5
323
330
2D3
100
AcDbEntity
  8
0
100
AcDbMText
 10
8.181078187965852
 20
5.543994002645511
 30
0.0
 40
0.1
 41
0.6349584318492989
 71
     1
 72
     5
  1
+ DATA
1001
ACAD
1000
MTEXTBEGIN
1070
    73
1070
     1
1070
    44
1040
1.0
1070
    74
1070
     0
1000
MTEXTEND
  0
MTEXT
  5
324
330
2D3
100
AcDbEntity
  8
0
100
AcDbMText
 10
8.172937663553732
 20
5.71478958772165
 30
0.0
 40
0.1
 41
0.6593799584385567
 71
     1
 72
     5
  1
- DATA
1001
ACAD
1000
MTEXTBEGIN
1070
    73
1070
     1
1070
    44
1040
1.0
1070
    74
1070
     0
1000
MTEXTEND
  0
MTEXT
  5
325
330
2D3
100
AcDbEntity
  8
IFS_FIBER_OPTICS
100
AcDbMText
 10
8.881654989633524
 20
5.478720803972605
 30
0.0
 40
0.1
 41
0.160675164440798
 71
     4
 72
     5
  1
{\fArial|b0|i0|c0|p34;-1}
1001
ACAD
1000
MTEXTBEGIN
1070
    73
1070
     1
1070
    44
1040
1.0
1070
    74
1070
     0
1000
MTEXTEND
  0
LINE
  5
326
330
2D3
100
AcDbEntity
  8
POWER_LED
100
AcDbLine
 10
9.278458988097087
 20
5.474350574793096
 30
0.0
 11
9.278458988097087
 21
5.474350574793096
 31
0.0
  0
MTEXT
  5
327
330
2D3
100
AcDbEntity
  8
IFS_FIBER_OPTICS
100
AcDbMText
 10
8.881654989633524
 20
5.678720803972606
 30
0.0
 40
0.1
 41
0.1607
 71
     4
 72
     5
  1
{\fArial|b0|i0|c0|p34;-2}
1001
ACAD
1000
MTEXTBEGIN
1070
    73
1070
     1
1070
    44
1040
1.0
1070
    74
1070
     0
1000
MTEXTEND
  0
LINE
  5
328
330
2D3
100
AcDbEntity
  8
POWER_LED
100
AcDbLine
 10
9.278458988097087
 20
5.674350574793097
 30
0.0
 11
9.278458988097087
 21
5.674350574793097
 31
0.0
  0
LINE
  5
329
330
2D3
100
AcDbEntity
  8
POWER_LED
100
AcDbLine
 10
9.278458988097087
 20
5.874350574793097
 30
0.0
 11
9.278458988097087
 21
5.874350574793097
 31
0.0
  0
MTEXT
  5
32A
330
2D3
100
AcDbEntity
  8
0
100
AcDbMText
 10
8.812334566449962
 20
6.105179525116842
 30
0.0
 40
0.1
 41
0.2438465672572718
 71
     1
 72
     5
  1
-4
1001
ACAD
1000
MTEXTBEGIN
1070
    73
1070
     1
1070
    44
1040
1.0
1070
    74
1070
     0
1000
MTEXTEND
  0
LINE
  5
32B
330
2D3
100
AcDbEntity
  8
POWER_LED
100
AcDbLine
 10
9.278458988097087
 20
6.057869024814571
 30
0.0
 11
9.278458988097087
 21
6.057869024814571
 31
0.0
  0
ARC
  5
32C
330
2D3
100
AcDbEntity
  8
IFS_FIBER_OPTICS
100
AcDbCircle
 10
8.537005121609004
 20
6.980676722130715
 30
0.0
 40
0.078
100
AcDbArc
 50
270.0
 51
90.0
  0
ARC
  5
32D
330
2D3
100
AcDbEntity
  8
IFS_FIBER_OPTICS
100
AcDbCircle
 10
8.037005121609004
 20
6.980676722130715
 30
0.0
 40
0.078
100
AcDbArc
 50
90.0
 51
270.0
  0
ARC
  5
32E
102
{ACAD_REACTORS
330
30B
102
}
330
2D3
100
AcDbEntity
  8
IFS_FIBER_OPTICS
100
AcDbCircle
 10
8.287005121609004
 20
6.980676722130715
 30
0.0
 40
0.14
100
AcDbArc
 50
213.8584366594589
 51
326.1415633405438
  0
LINE
  5
32F
330
2D3
100
AcDbEntity
  8
IFS_FIBER_OPTICS
100
AcDbLine
 10
8.037005121609004
 20
6.902676722130714
 30
0.0
 11
8.170746788574335
 21
6.902676722130714
 31
0.0
  0
LINE
  5
330
330
2D3
100
AcDbEntity
  8
IFS_FIBER_OPTICS
100
AcDbLine
 10
8.403263454643672
 20
6.902676722130714
 30
0.0
 11
8.537005121609004
 21
6.902676722130714
 31
0.0
  0
ARC
  5
331
330
2D3
100
AcDbEntity
  8
IFS_FIBER_OPTICS
100
AcDbCircle
 10
8.287005121609004
 20
6.980676722130715
 30
0.0
 40
0.14
100
AcDbArc
 50
33.85843665945611
 51
146.1415633405438
  0
LINE
  5
332
330
2D3
100
AcDbEntity
  8
IFS_FIBER_OPTICS
100
AcDbLine
 10
8.037005121609006
 20
7.058676722130715
 30
0.0
 11
8.170746788574335
 21
7.058676722130715
 31
0.0
  0
LINE
  5
333
330
2D3
100
AcDbEntity
  8
IFS_FIBER_OPTICS
100
AcDbLine
 10
8.403263454643672
 20
7.058676722130715
 30
0.0
 11
8.537005121609006
 21
7.058676722130716
 31
0.0
  0
INSERT
  5
334
330
2D3
100
AcDbEntity
  8
IFS_FIBER_OPTICS
100
AcDbBlockReference
  2
R3_SCREW_HEAD
 10
13.21394933532896
 20
2.066856509766495
 30
0.0
  0
LINE
  5
335
330
2D3
100
AcDbEntity
  8
IFS_FIBER_OPTICS
100
AcDbLine
 10
13.21394933532896
 20
7.121856509766495
 30
0.0
 11
13.21394933532896
 21
2.066856509766495
 31
0.0
  0
INSERT
  5
336
330
2D3
100
AcDbEntity
  8
IFS_FIBER_OPTICS
100
AcDbBlockReference
  2
R3_1_INCH_REAR_SCREW
 10
16.24097465577615
 20
2.066856509766494
 30
0.0
  0
LINE
  5
337
330
2D3
100
AcDbEntity
  8
IFS_FIBER_OPTICS
100
AcDbLine
 10
14.19394933532896
 20
2.066856509766495
 30
0.0
 11
14.19394933532896
 21
7.121856509766495
 31
0.0
  0
LINE
  5
338
330
2D3
100
AcDbEntity
  8
IFS_FIBER_OPTICS
100
AcDbLine
 10
16.24097465577615
 20
2.066856509766494
 30
0.0
 11
16.24097465577615
 21
7.121856509766494
 31
0.0
  0
LINE
  5
339
330
2D3
100
AcDbEntity
  8
IFS_FIBER_OPTICS
100
AcDbLine
 10
17.22097465577615
 20
2.066856509766494
 30
0.0
 11
17.22097465577615
 21
7.121856509766494
 31
0.0
  0
LINE
  5
33A
330
2D3
100
AcDbEntity
  8
IFS_FIBER_OPTICS
100
AcDbLine
 10
17.15897465577615
 20
6.543856509766491
 30
0.0
 11
17.15897465577615
 21
2.643856509766493
 31
0.0
  0
LINE
  5
33B
330
2D3
100
AcDbEntity
  8
IFS_FIBER_OPTICS
100
AcDbLine
 10
16.97097465577615
 20
2.643856509766493
 30
0.0
 11
16.97097465577615
 21
6.543856509766491
 31
0.0
  0
LINE
  5
33C
330
2D3
100
AcDbEntity
  8
IFS_FIBER_OPTICS
100
AcDbLine
 10
16.90097465577615
 20
2.643856509766493
 30
0.0
 11
16.90097465577615
 21
6.543856509766491
 31
0.0
  0
SOLID
  5
33D
330
2D3
100
AcDbEntity
  8
IFS_FIBER_OPTICS
100
AcDbTrace
 10
16.90097465577615
 20
6.543856509766491
 30
0.0
 11
16.90097465577615
 21
2.643856509766493
 31
0.0
 12
16.97097465577615
 22
6.543856509766491
 32
0.0
 13
16.97097465577615
 23
2.643856509766493
 33
0.0
  0
SOLID
  5
33E
330
2D3
100
AcDbEntity
  8
IFS_FIBER_OPTICS
100
AcDbTrace
 10
16.90097465577615
 20
6.543856509766491
 30
0.0
 11
16.90097465577615
 21
2.643856509766493
 31
0.0
 12
16.97097465577615
 22
6.543856509766491
 32
0.0
 13
16.97097465577615
 23
2.643856509766493
 33
0.0
  0
SOLID
  5
33F
330
2D3
100
AcDbEntity
  8
IFS_FIBER_OPTICS
100
AcDbTrace
 10
17.15897465577615
 20
6.543856509766491
 30
0.0
 11
17.15897465577615
 21
2.643856509766493
 31
0.0
 12
17.22097465577615
 22
6.543856509766491
 32
0.0
 13
17.22097465577615
 23
2.643856509766493
 33
0.0
  0
MTEXT
  5
340
330
2D3
100
AcDbEntity
  8
0
100
AcDbMText
 10
13.16820225815185
 20
1.397538004795286
 30
0.0
 40
0.2
 41
4.3631
 71
     1
 72
     5
  1
LTC 4671 TRANSCEIVER\P   RACK MODULES
1001
ACAD
1000
MTEXTBEGIN
1070
    73
1070
     1
1070
    44
1040
1.0
1070
    74
1070
     0
1000
MTEXTEND
  0
LINE
  5
341
330
2D3
100
AcDbEntity
  8
IFS_FIBER_OPTICS
100
AcDbLine
 10
14.17894933532896
 20
3.016856509766495
 30
0.0
 11
13.22894933532896
 21
3.016856509766495
 31
0.0
  0
MTEXT
  5
342
330
2D3
100
AcDbEntity
  8
0
100
AcDbMText
 10
13.43424716344161
 20
1.946866273744149
 30
0.0
 40
0.1
 41
0.6562439375766836
 71
     1
 72
     5
  1
Front
1001
ACAD
1000
MTEXTBEGIN
1070
    73
1070
     1
1070
    44
1040
1.0
1070
    74
1070
     0
1000
MTEXTEND
  0
MTEXT
  5
343
330
2D3
100
AcDbEntity
  8
IFS_FIBER_OPTICS
100
AcDbMText
 10
13.72035851641096
 20
2.676580654636301
 30
0.0
 40
0.1
 41
1.085390818917992
 71
     5
 72
     5
  1
{\fArial|b0|i0|c0|p34;LTC 4671}
1001
ACAD
1000
MTEXTBEGIN
1070
    73
1070
     1
1070
    44
1040
1.0
1070
    74
1070
     0
1000
MTEXTEND
  0
LINE
  5
344
330
2D3
100
AcDbEntity
  8
IFS_FIBER_OPTICS
100
AcDbLine
 10
13.21394933532896
 20
2.066856509766495
 30
0.0
 11
14.19394933532896
 21
2.066856509766495
 31
0.0
  0
LINE
  5
345
330
2D3
100
AcDbEntity
  8
IFS_FIBER_OPTICS
100
AcDbLine
 10
13.22894933532896
 20
2.416856509766494
 30
0.0
 11
14.17894933532896
 21
2.416856509766494
 31
0.0
  0
LINE
  5
346
330
2D3
100
AcDbEntity
  8
IFS_FIBER_OPTICS
100
AcDbLine
 10
13.22894933532896
 20
3.016856509766495
 30
0.0
 11
13.22894933532896
 21
2.416856509766494
 31
0.0
  0
LINE
  5
347
330
2D3
100
AcDbEntity
  8
IFS_FIBER_OPTICS
100
AcDbLine
 10
14.17894933532896
 20
2.416856509766494
 30
0.0
 11
14.17894933532896
 21
3.016856509766495
 31
0.0
  0
INSERT
  5
348
330
2D3
100
AcDbEntity
  8
IFS_FIBER_OPTICS
100
AcDbBlockReference
  2
CONNR3MOLEX
 10
16.67097465577615
 20
3.058856509766493
 30
0.0
  0
MTEXT
  5
349
330
2D3
100
AcDbEntity
  8
0
100
AcDbMText
 10
16.53810365483097
 20
1.982306811057604
 30
0.0
 40
0.1
 41
0.4434080575643402
 71
     1
 72
     5
  1
Rear
1001
ACAD
1000
MTEXTBEGIN
1070
    73
1070
     1
1070
    44
1040
1.0
1070
    74
1070
     0
1000
MTEXTEND
  0
LINE
  5
34A
330
2D3
100
AcDbEntity
  8
IFS_FIBER_OPTICS
100
AcDbLine
 10
16.24097465577615
 20
2.066856509766494
 30
0.0
 11
17.22097465577615
 21
2.066856509766494
 31
0.0
  0
SOLID
  5
34B
330
2D3
100
AcDbEntity
  8
IFS_FIBER_OPTICS
100
AcDbTrace
 10
16.97427500966774
 20
2.925856509766493
 30
0.0
 11
16.97427500966774
 21
2.765856509766492
 31
0.0
 12
17.15646492764012
 22
2.925856509766493
 32
0.0
 13
17.15646492764012
 23
2.765856509766492
 33
0.0
  0
LINE
  5
34C
330
2D3
100
AcDbEntity
  8
IFS_FIBER_OPTICS
100
AcDbLine
 10
16.97427500966774
 20
2.925856509766493
 30
0.0
 11
16.97427500966774
 21
2.765856509766492
 31
0.0
  0
LINE
  5
34D
330
2D3
100
AcDbEntity
  8
IFS_FIBER_OPTICS
100
AcDbLine
 10
17.15646492764012
 20
2.765856509766492
 30
0.0
 11
17.15646492764012
 21
2.925856509766493
 31
0.0
  0
LINE
  5
34E
330
2D3
100
AcDbEntity
  8
IFS_FIBER_OPTICS
100
AcDbLine
 10
16.97427500966774
 20
2.765856509766492
 30
0.0
 11
17.15646492764012
 21
2.765856509766492
 31
0.0
  0
LINE
  5
34F
330
2D3
100
AcDbEntity
  8
IFS_FIBER_OPTICS
100
AcDbLine
 10
16.97427500966774
 20
2.925856509766493
 30
0.0
 11
17.15646492764012
 21
2.925856509766493
 31
0.0
  0
LINE
  5
350
330
2D3
100
AcDbEntity
  8
0
100
AcDbLine
 10
9.42070990946298
 20
5.370592506366766
 30
0.0
 11
9.42070990946298
 21
6.162111395165062
 31
0.0
  0
CIRCLE
  5
351
330
2D3
100
AcDbEntity
  8
IFS_FIBER_OPTICS
100
AcDbCircle
 10
13.72594933532896
 20
5.929356509766495
 30
0.0
 40
0.05
  0
LINE
  5
352
330
2D3
100
AcDbEntity
  8
IFS_FIBER_OPTICS
100
AcDbLine
 10
13.42664370676462
 20
5.931897527265368
 30
0.0
 11
13.42664370676462
 21
5.875711967809484
 31
0.0
  0
CIRCLE
  5
353
330
2D3
100
AcDbEntity
  8
IFS_FIBER_OPTICS
100
AcDbCircle
 10
13.72594933532896
 20
5.929356509766495
 30
0.0
 40
0.195
  0
CIRCLE
  5
354
330
2D3
100
AcDbEntity
  8
IFS_FIBER_OPTICS
100
AcDbCircle
 10
13.72594933532896
 20
5.929356509766495
 30
0.0
 40
0.14
  0
LWPOLYLINE
  5
355
330
2D3
100
AcDbEntity
  8
IFS_FIBER_OPTICS
100
AcDbPolyline
 90
        2
 70
     1
 43
0.07
 10
13.69094933532895
 20
4.594356509766495
 42
1.0
 10
13.76094933532896
 20
4.594356509766495
 42
1.0
  0
CIRCLE
  5
356
330
2D3
100
AcDbEntity
  8
IFS_FIBER_OPTICS
100
AcDbCircle
 10
13.72594933532896
 20
4.954356509766496
 30
0.0
 40
0.195
  0
LWPOLYLINE
  5
357
330
2D3
100
AcDbEntity
  8
IFS_FIBER_OPTICS
100
AcDbPolyline
 90
        2
 70
     1
 43
0.07
 10
13.69094933532895
 20
5.534356509766496
 42
1.0
 10
13.76094933532896
 20
5.534356509766496
 42
1.0
  0
LWPOLYLINE
  5
358
330
2D3
100
AcDbEntity
  8
IFS_FIBER_OPTICS
100
AcDbPolyline
 90
        2
 70
     1
 43
0.07
 10
13.69094933532895
 20
5.324356509766495
 42
1.0
 10
13.76094933532896
 20
5.324356509766495
 42
1.0
  0
CIRCLE
  5
359
330
2D3
100
AcDbEntity
  8
IFS_FIBER_OPTICS
100
AcDbCircle
 10
13.72594933532896
 20
4.954356509766496
 30
0.0
 40
0.14
  0
MTEXT
  5
35A
330
2D3
100
AcDbEntity
  8
IFS_FIBER_OPTICS
100
AcDbMText
 10
13.62752893030754
 20
5.201218155087174
 30
0.0
 40
0.09
 41
0.0
 71
     6
 72
     5
  1
{\fArial|b0|i0|c0|p34;XTMR}
1001
ACAD
1000
MTEXTBEGIN
1070
    73
1070
     1
1070
    44
1040
1.0
1070
    74
1070
     0
1000
MTEXTEND
  0
LINE
  5
35B
330
2D3
100
AcDbEntity
  8
IFS_FIBER_OPTICS
100
AcDbLine
 10
13.58012993292485
 20
4.950343337676699
 30
0.0
 11
13.42664370676462
 21
4.950343337676699
 31
0.0
  0
LINE
  5
35C
330
2D3
100
AcDbEntity
  8
IFS_FIBER_OPTICS
100
AcDbLine
 10
13.42664370676462
 20
4.950343337676699
 30
0.0
 11
13.42664370676462
 21
5.006528897132582
 31
0.0
  0
LINE
  5
35D
330
2D3
100
AcDbEntity
  8
IFS_FIBER_OPTICS
100
AcDbLine
 10
13.43096720891484
 20
5.534276669974465
 30
0.0
 11
13.43096720891484
 21
5.607750075119104
 31
0.0
  0
LINE
  5
35E
330
2D3
100
AcDbEntity
  8
IFS_FIBER_OPTICS
100
AcDbLine
 10
13.64065972295888
 20
5.347964194967602
 30
0.0
 11
13.43096720891484
 21
5.347964194967602
 31
0.0
  0
LINE
  5
35F
330
2D3
100
AcDbEntity
  8
IFS_FIBER_OPTICS
100
AcDbLine
 10
13.43096720891484
 20
5.347964194967602
 30
0.0
 11
13.43096720891484
 21
5.274490789822962
 31
0.0
  0
LINE
  5
360
330
2D3
100
AcDbEntity
  8
IFS_FIBER_OPTICS
100
AcDbLine
 10
13.64065972295888
 20
5.534276669974465
 30
0.0
 11
13.43096720891484
 21
5.534276669974465
 31
0.0
  0
MTEXT
  5
361
330
2D3
100
AcDbEntity
  8
IFS_FIBER_OPTICS
100
AcDbMText
 10
13.57803257646541
 20
5.742289095467921
 30
0.0
 40
0.09
 41
0.3372
 71
     6
 72
     5
  1
{\fArial|b0|i0|c0|p34;REC}
1001
ACAD
1000
MTEXTBEGIN
1070
    73
1070
     1
1070
    44
1040
1.0
1070
    74
1070
     0
1000
MTEXTEND
  0
MTEXT
  5
362
330
2D3
100
AcDbEntity
  8
IFS_FIBER_OPTICS
100
AcDbMText
 10
14.00163604511811
 20
4.589049105340549
 30
0.0
 40
0.09
 41
0.4076000000000001
 71
     5
 72
     5
  1
{\fArial|b0|i0|c0|p34;PWR}
1001
ACAD
1000
MTEXTBEGIN
1070
    73
1070
     1
1070
    44
1040
1.0
1070
    74
1070
     0
1000
MTEXTEND
  0
LWPOLYLINE
  5
363
330
2D3
100
AcDbEntity
  8
IFS_FIBER_OPTICS
100
AcDbPolyline
 90
        2
 70
     0
 43
0.04
 10
13.72594933532895
 20
4.815435041272209
 10
13.72594933532895
 20
4.795435041272209
  0
CIRCLE
  5
364
330
2D3
100
AcDbEntity
  8
IFS_FIBER_OPTICS
100
AcDbCircle
 10
13.72594933532896
 20
4.954356509766496
 30
0.0
 40
0.05
  0
LWPOLYLINE
  5
365
330
2D3
100
AcDbEntity
  8
IFS_FIBER_OPTICS
100
AcDbPolyline
 90
        2
 70
     0
 43
0.04
 10
13.72594933532895
 20
5.112997039824847
 10
13.72594933532895
 20
5.092997039824847
  0
LWPOLYLINE
  5
366
330
2D3
100
AcDbEntity
  8
IFS_FIBER_OPTICS
100
AcDbPolyline
 90
        2
 70
     0
 43
0.04
 10
13.72594933532895
 20
5.770715979708143
 10
13.72594933532895
 20
5.790715979708142
  0
LINE
  5
367
330
2D3
100
AcDbEntity
  8
IFS_FIBER_OPTICS
100
AcDbLine
 10
14.19394933532896
 20
7.121856509766495
 30
0.0
 11
13.21394933532896
 21
7.121856509766495
 31
0.0
  0
MTEXT
  5
368
330
2D3
100
AcDbEntity
  8
IFS_FIBER_OPTICS
100
AcDbMText
 10
13.70739718893149
 20
6.299691073633883
 30
0.0
 40
0.09
 41
1.0
 71
     5
 72
     5
  1
{\fArial|b0|i0|c0|p34;RS485\PTRANSCEIVER}
1001
ACAD
1000
MTEXTBEGIN
1070
    73
1070
     1
1070
    44
1040
1.0
1070
    74
1070
     0
1000
MTEXTEND
  0
LINE
  5
369
330
2D3
100
AcDbEntity
  8
IFS_FIBER_OPTICS
100
AcDbLine
 10
13.58012993292485
 20
5.931897527265368
 30
0.0
 11
13.42664370676462
 21
5.931897527265368
 31
0.0
  0
LWPOLYLINE
  5
36A
330
2D3
100
AcDbEntity
  8
IFS_FIBER_OPTICS
100
AcDbPolyline
 90
        2
 70
     0
 43
0.04
 10
13.72594933532895
 20
6.06827797826078
 10
13.72594933532895
 20
6.08827797826078
  0
INSERT
  5
36B
330
2D3
100
AcDbEntity
  8
IFS_FIBER_OPTICS
100
AcDbBlockReference
  2
CONN3PP_FRONT
 10
16.29970033897897
 20
5.401800466188117
 30
0.0
  0
LINE
  5
36C
330
2D3
100
AcDbEntity
  8
IFS_FIBER_OPTICS
100
AcDbLine
 10
17.22097465577615
 20
7.121856509766494
 30
0.0
 11
16.24097465577615
 21
7.121856509766494
 31
0.0
  0
LINE
  5
36D
330
2D3
100
AcDbEntity
  8
IFS_FIBER_OPTICS
100
AcDbLine
 10
16.97097465577615
 20
6.543856509766491
 30
0.0
 11
16.97097465577615
 21
6.211023144634267
 31
0.0
  0
LINE
  5
36E
330
2D3
100
AcDbEntity
  8
IFS_FIBER_OPTICS
100
AcDbLine
 10
17.15897465577615
 20
6.211023144634267
 30
0.0
 11
17.15897465577615
 21
6.543856509766491
 31
0.0
  0
LINE
  5
36F
330
2D3
100
AcDbEntity
  8
IFS_FIBER_OPTICS
100
AcDbLine
 10
17.15646492764012
 20
6.253856509766491
 30
0.0
 11
17.15646492764012
 21
6.413856509766492
 31
0.0
  0
LINE
  5
370
330
2D3
100
AcDbEntity
  8
IFS_FIBER_OPTICS
100
AcDbLine
 10
16.97427500966774
 20
6.413856509766492
 30
0.0
 11
16.97427500966774
 21
6.253856509766491
 31
0.0
  0
SOLID
  5
371
330
2D3
100
AcDbEntity
  8
IFS_FIBER_OPTICS
100
AcDbTrace
 10
16.97427500966774
 20
6.413856509766492
 30
0.0
 11
16.97427500966774
 21
6.253856509766491
 31
0.0
 12
17.15646492764012
 22
6.413856509766492
 32
0.0
 13
17.15646492764012
 23
6.253856509766491
 33
0.0
  0
LINE
  5
372
330
2D3
100
AcDbEntity
  8
IFS_FIBER_OPTICS
100
AcDbLine
 10
16.97427500966774
 20
6.253856509766491
 30
0.0
 11
17.15646492764012
 21
6.253856509766491
 31
0.0
  0
LINE
  5
373
330
2D3
100
AcDbEntity
  8
IFS_FIBER_OPTICS
100
AcDbLine
 10
16.97427500966774
 20
6.413856509766492
 30
0.0
 11
17.15646492764012
 21
6.413856509766492
 31
0.0
  0
ENDBLK
  5
2D5
330
2D3
100
AcDbEntity
  8
0
100
AcDbBlockEnd
  0
BLOCK
  5
473
330
468
100
AcDbEntity
  8
0
100
AcDbBlockBegin
  2
*D12
 70
     1
 10
0.0
 20
0.0
 30
0.0
  3
*D12
  1

  0
LINE
  5
469
330
468
100
AcDbEntity
  8
0
 62
     0
100
AcDbLine
 10
103.6843229608517
 20
119.5630384006193
 30
0.0
 11
125.5200720802308
 21
119.5630384006193
 31
0.0
  0
LINE
  5
46A
330
468
100
AcDbEntity
  8
0
 62
     0
100
AcDbLine
 10
103.6843229608517
 20
-9.976961599380615
 30
0.0
 11
125.5200720802307
 21
-9.976961599380622
 31
0.0
  0
LINE
  5
46B
330
468
100
AcDbEntity
  8
0
 62
     0
100
AcDbLine
 10
125.3400720802308
 20
119.3830384006193
 30
0.0
 11
125.3400720802307
 21
54.97303840061937
 31
0.0
  0
LINE
  5
46C
330
468
100
AcDbEntity
  8
0
 62
     0
100
AcDbLine
 10
125.3400720802307
 20
-9.796961599380622
 30
0.0
 11
125.3400720802307
 21
54.61303840061937
 31
0.0
  0
SOLID
  5
46D
330
468
100
AcDbEntity
  8
0
 62
     0
100
AcDbTrace
 10
125.3100720802308
 20
119.3830384006193
 30
0.0
 11
125.3700720802308
 21
119.3830384006193
 31
0.0
 12
125.3400720802308
 22
119.5630384006193
 32
0.0
 13
125.3400720802308
 23
119.5630384006193
 33
0.0
  0
SOLID
  5
46E
330
468
100
AcDbEntity
  8
0
 62
     0
100
AcDbTrace
 10
125.3100720802307
 20
-9.796961599380622
 30
0.0
 11
125.3700720802307
 21
-9.796961599380622
 31
0.0
 12
125.3400720802307
 22
-9.976961599380622
 32
0.0
 13
125.3400720802307
 23
-9.976961599380622
 33
0.0
  0
MTEXT
  5
46F
330
468
100
AcDbEntity
  8
0
 62
     0
100
AcDbMText
 10
125.3400720802307
 20
54.79303840061939
 30
0.0
 40
0.18
 41
0.0
 71
     5
 72
     1
  1
\A1;129.5400
1001
ACAD
1000
MTEXTBEGIN
1070
    73
1070
     1
1070
    44
1040
1.0
1070
    74
1070
     0
1000
MTEXTEND
  0
POINT
  5
470
330
468
100
AcDbEntity
  8
DEFPOINTS
 62
     0
100
AcDbPoint
 10
103.6218229608517
 20
119.5630384006193
 30
0.0
  0
POINT
  5
471
330
468
100
AcDbEntity
  8
DEFPOINTS
 62
     0
100
AcDbPoint
 10
103.6218229608517
 20
-9.976961599380615
 30
0.0
  0
POINT
  5
472
330
468
100
AcDbEntity
  8
DEFPOINTS
 62
     0
100
AcDbPoint
 10
125.3400720802307
 20
-9.976961599380622
 30
0.0
  0
ENDBLK
  5
474
330
468
100
AcDbEntity
  8
0
100
AcDbBlockEnd
  0
BLOCK
  5
480
330
475
100
AcDbEntity
  8
0
100
AcDbBlockBegin
  2
*D13
 70
     1
 10
0.0
 20
0.0
 30
0.0
  3
*D13
  1

  0
LINE
  5
476
330
475
100
AcDbEntity
  8
0
 62
     0
100
AcDbLine
 10
-55.65507708019449
 20
114.8301491556325
 30
0.0
 11
-55.65507708019449
 21
125.4904463531777
 31
0.0
  0
LINE
  5
477
330
475
100
AcDbEntity
  8
0
 62
     0
100
AcDbLine
 10
84.04492291980551
 20
114.8301491556325
 30
0.0
 11
84.04492291980551
 21
125.4904463531777
 31
0.0
  0
LINE
  5
478
330
475
100
AcDbEntity
  8
0
 62
     0
100
AcDbLine
 10
-55.47507708019448
 20
125.3104463531777
 30
0.0
 11
13.54992291980551
 21
125.3104463531777
 31
0.0
  0
LINE
  5
479
330
475
100
AcDbEntity
  8
0
 62
     0
100
AcDbLine
 10
83.8649229198055
 20
125.3104463531777
 30
0.0
 11
14.83992291980551
 21
125.3104463531777
 31
0.0
  0
SOLID
  5
47A
330
475
100
AcDbEntity
  8
0
 62
     0
100
AcDbTrace
 10
-55.47507708019448
 20
125.3404463531777
 30
0.0
 11
-55.47507708019448
 21
125.2804463531777
 31
0.0
 12
-55.65507708019449
 22
125.3104463531777
 32
0.0
 13
-55.65507708019449
 23
125.3104463531777
 33
0.0
  0
SOLID
  5
47B
330
475
100
AcDbEntity
  8
0
 62
     0
100
AcDbTrace
 10
83.8649229198055
 20
125.3404463531777
 30
0.0
 11
83.8649229198055
 21
125.2804463531777
 31
0.0
 12
84.04492291980551
 22
125.3104463531777
 32
0.0
 13
84.04492291980551
 23
125.3104463531777
 33
0.0
  0
MTEXT
  5
47C
330
475
100
AcDbEntity
  8
0
 62
     0
100
AcDbMText
 10
14.19492291980551
 20
125.3104463531777
 30
0.0
 40
0.18
 41
0.0
 71
     5
 72
     1
  1
\A1;139.7000
1001
ACAD
1000
MTEXTBEGIN
1070
    73
1070
     1
1070
    44
1040
1.0
1070
    74
1070
     0
1000
MTEXTEND
  0
POINT
  5
47D
330
475
100
AcDbEntity
  8
DEFPOINTS
 62
     0
100
AcDbPoint
 10
-55.65507708019449
 20
114.7676491556325
 30
0.0
  0
POINT
  5
47E
330
475
100
AcDbEntity
  8
DEFPOINTS
 62
     0
100
AcDbPoint
 10
84.04492291980551
 20
114.7676491556325
 30
0.0
  0
POINT
  5
47F
330
475
100
AcDbEntity
  8
DEFPOINTS
 62
     0
100
AcDbPoint
 10
84.04492291980551
 20
125.3104463531777
 30
0.0
  0
ENDBLK
  5
481
330
475
100
AcDbEntity
  8
0
100
AcDbBlockEnd
  0
BLOCK
  5
48D
330
482
100
AcDbEntity
  8
0
100
AcDbBlockBegin
  2
*D14
 70
     1
 10
0.0
 20
0.0
 30
0.0
  3
*D14
  1

  0
LINE
  5
483
330
482
100
AcDbEntity
  8
0
 62
     0
100
AcDbLine
 10
-74.94017703914829
 20
119.6255384006193
 30
0.0
 11
-74.94017703914829
 21
134.7552896250967
 31
0.0
  0
LINE
  5
484
330
482
100
AcDbEntity
  8
0
 62
     0
100
AcDbLine
 10
103.6218229608517
 20
119.6255384006193
 30
0.0
 11
103.6218229608517
 21
134.7552896250967
 31
0.0
  0
LINE
  5
485
330
482
100
AcDbEntity
  8
0
 62
     0
100
AcDbLine
 10
-74.76017703914829
 20
134.5752896250967
 30
0.0
 11
13.66582296085171
 21
134.5752896250967
 31
0.0
  0
LINE
  5
486
330
482
100
AcDbEntity
  8
0
 62
     0
100
AcDbLine
 10
103.4418229608517
 20
134.5752896250967
 30
0.0
 11
15.01582296085171
 21
134.5752896250967
 31
0.0
  0
SOLID
  5
487
330
482
100
AcDbEntity
  8
0
 62
     0
100
AcDbTrace
 10
-74.76017703914829
 20
134.6052896250967
 30
0.0
 11
-74.76017703914829
 21
134.5452896250967
 31
0.0
 12
-74.94017703914829
 22
134.5752896250967
 32
0.0
 13
-74.94017703914829
 23
134.5752896250967
 33
0.0
  0
SOLID
  5
488
330
482
100
AcDbEntity
  8
0
 62
     0
100
AcDbTrace
 10
103.4418229608517
 20
134.6052896250967
 30
0.0
 11
103.4418229608517
 21
134.5452896250967
 31
0.0
 12
103.6218229608517
 22
134.5752896250967
 32
0.0
 13
103.6218229608517
 23
134.5752896250967
 33
0.0
  0
MTEXT
  5
489
330
482
100
AcDbEntity
  8
0
 62
     0
100
AcDbMText
 10
14.34082296085171
 20
134.5752896250967
 30
0.0
 40
0.18
 41
0.0
 71
     5
 72
     1
  1
\A1;178.5620
1001
ACAD
1000
MTEXTBEGIN
1070
    73
1070
     1
1070
    44
1040
1.0
1070
    74
1070
     0
1000
MTEXTEND
  0
POINT
  5
48A
330
482
100
AcDbEntity
  8
DEFPOINTS
 62
     0
100
AcDbPoint
 10
-74.94017703914829
 20
119.5630384006193
 30
0.0
  0
POINT
  5
48B
330
482
100
AcDbEntity
  8
DEFPOINTS
 62
     0
100
AcDbPoint
 10
103.6218229608517
 20
119.5630384006193
 30
0.0
  0
POINT
  5
48C
330
482
100
AcDbEntity
  8
DEFPOINTS
 62
     0
100
AcDbPoint
 10
103.6218229608517
 20
134.5752896250967
 30
0.0
  0
ENDBLK
  5
48E
330
482
100
AcDbEntity
  8
0
100
AcDbBlockEnd
  0
BLOCK
  5
49B
330
490
100
AcDbEntity
  8
0
100
AcDbBlockBegin
  2
*D15
 70
     1
 10
0.0
 20
0.0
 30
0.0
  3
*D15
  1

  0
LINE
  5
4A9
330
490
100
AcDbEntity
  8
0
 62
     0
100
AcDbLine
 10
-74.94017703914829
 20
120.5005384006193
 30
0.0
 11
-74.94017703914829
 21
136.9959350611525
 31
0.0
  0
LINE
  5
4AA
330
490
100
AcDbEntity
  8
0
 62
     0
100
AcDbLine
 10
103.6218229608517
 20
120.5005384006193
 30
0.0
 11
103.6218229608517
 21
136.9959350611525
 31
0.0
  0
LINE
  5
4AB
330
490
100
AcDbEntity
  8
0
 62
     0
100
AcDbLine
 10
-72.24017703914829
 20
134.2959350611525
 30
0.0
 11
4.21582296085171
 21
134.2959350611525
 31
0.0
  0
LINE
  5
4AC
330
490
100
AcDbEntity
  8
0
 62
     0
100
AcDbLine
 10
100.9218229608517
 20
134.2959350611525
 30
0.0
 11
24.46582296085171
 21
134.2959350611525
 31
0.0
  0
SOLID
  5
4AD
330
490
100
AcDbEntity
  8
0
 62
     0
100
AcDbTrace
 10
-72.24017703914829
 20
134.7459350611525
 30
0.0
 11
-72.24017703914829
 21
133.8459350611526
 31
0.0
 12
-74.94017703914829
 22
134.2959350611525
 32
0.0
 13
-74.94017703914829
 23
134.2959350611525
 33
0.0
  0
SOLID
  5
4AE
330
490
100
AcDbEntity
  8
0
 62
     0
100
AcDbTrace
 10
100.9218229608517
 20
134.7459350611525
 30
0.0
 11
100.9218229608517
 21
133.8459350611526
 31
0.0
 12
103.6218229608517
 22
134.2959350611525
 32
0.0
 13
103.6218229608517
 23
134.2959350611525
 33
0.0
  0
MTEXT
  5
4AF
330
490
100
AcDbEntity
  8
0
 62
     0
100
AcDbMText
 10
14.34082296085171
 20
134.2959350611525
 30
0.0
 40
2.699999999999999
 41
0.0
 71
     5
 72
     1
  1
\A1;178.5620
1001
ACAD
1000
MTEXTBEGIN
1070
    73
1070
     1
1070
    44
1040
1.0
1070
    74
1070
     0
1000
MTEXTEND
  0
POINT
  5
4B0
330
490
100
AcDbEntity
  8
DEFPOINTS
 62
     0
100
AcDbPoint
 10
-74.94017703914829
 20
119.5630384006193
 30
0.0
  0
POINT
  5
4B1
330
490
100
AcDbEntity
  8
DEFPOINTS
 62
     0
100
AcDbPoint
 10
103.6218229608517
 20
119.5630384006193
 30
0.0
  0
POINT
  5
4B2
330
490
100
AcDbEntity
  8
DEFPOINTS
 62
     0
100
AcDbPoint
 10
103.6218229608517
 20
134.2959350611525
 30
0.0
  0
ENDBLK
  5
49C
330
490
100
AcDbEntity
  8
0
100
AcDbBlockEnd
  0
BLOCK
  5
4BF
330
4B4
100
AcDbEntity
  8
0
100
AcDbBlockBegin
  2
*D16
 70
     1
 10
0.0
 20
0.0
 30
0.0
  3
*D16
  1

  0
LINE
  5
4CD
330
4B4
100
AcDbEntity
  8
0
 62
     0
100
AcDbLine
 10
-55.65507708019449
 20
-9.10585084436747
 30
0.0
 11
-55.65507708019449
 21
-19.78728284863565
 31
0.0
  0
LINE
  5
4CE
330
4B4
100
AcDbEntity
  8
0
 62
     0
100
AcDbLine
 10
84.04492291980551
 20
-9.10585084436747
 30
0.0
 11
84.04492291980551
 21
-19.78728284863565
 31
0.0
  0
LINE
  5
4CF
330
4B4
100
AcDbEntity
  8
0
 62
     0
100
AcDbLine
 10
-52.95507708019449
 20
-17.08728284863565
 30
0.0
 11
0.469922919805514
 21
-17.08728284863565
 31
0.0
  0
LINE
  5
4D0
330
4B4
100
AcDbEntity
  8
0
 62
     0
100
AcDbLine
 10
81.34492291980551
 20
-17.08728284863565
 30
0.0
 11
27.91992291980551
 21
-17.08728284863565
 31
0.0
  0
SOLID
  5
4D1
330
4B4
100
AcDbEntity
  8
0
 62
     0
100
AcDbTrace
 10
-52.95507708019449
 20
-16.63728284863565
 30
0.0
 11
-52.95507708019449
 21
-17.53728284863565
 31
0.0
 12
-55.65507708019449
 22
-17.08728284863565
 32
0.0
 13
-55.65507708019449
 23
-17.08728284863565
 33
0.0
  0
SOLID
  5
4D2
330
4B4
100
AcDbEntity
  8
0
 62
     0
100
AcDbTrace
 10
81.34492291980551
 20
-16.63728284863565
 30
0.0
 11
81.34492291980551
 21
-17.53728284863565
 31
0.0
 12
84.04492291980551
 22
-17.08728284863565
 32
0.0
 13
84.04492291980551
 23
-17.08728284863565
 33
0.0
  0
MTEXT
  5
4D3
330
4B4
100
AcDbEntity
  8
0
 62
     0
100
AcDbMText
 10
14.19492291980551
 20
-17.08728284863565
 30
0.0
 40
2.699999999999999
 41
0.0
 71
     5
 72
     1
  1
\A1;139.7 [5.50]
1001
ACAD
1000
MTEXTBEGIN
1070
    73
1070
     1
1070
    44
1040
1.0
1070
    74
1070
     0
1000
MTEXTEND
  0
POINT
  5
4D4
330
4B4
100
AcDbEntity
  8
DEFPOINTS
 62
     0
100
AcDbPoint
 10
-55.65507708019449
 20
-8.16835084436747
 30
0.0
  0
POINT
  5
4D5
330
4B4
100
AcDbEntity
  8
DEFPOINTS
 62
     0
100
AcDbPoint
 10
84.04492291980551
 20
-8.16835084436747
 30
0.0
  0
POINT
  5
4D6
330
4B4
100
AcDbEntity
  8
DEFPOINTS
 62
     0
100
AcDbPoint
 10
84.04492291980551
 20
-17.08728284863565
 30
0.0
  0
ENDBLK
  5
4C0
330
4B4
100
AcDbEntity
  8
0
100
AcDbBlockEnd
  0
BLOCK
  5
4E3
330
4D8
100
AcDbEntity
  8
0
100
AcDbBlockBegin
  2
*D17
 70
     1
 10
0.0
 20
0.0
 30
0.0
  3
*D17
  1

  0
LINE
  5
592
330
4D8
100
AcDbEntity
  8
0
 62
     0
100
AcDbLine
 10
-74.94017703914829
 20
120.5005384006193
 30
0.0
 11
-74.94017703914829
 21
137.379377123847
 31
0.0
  0
LINE
  5
593
330
4D8
100
AcDbEntity
  8
0
 62
     0
100
AcDbLine
 10
103.6218229608517
 20
120.5005384006193
 30
0.0
 11
103.6218229608517
 21
137.379377123847
 31
0.0
  0
LINE
  5
594
330
4D8
100
AcDbEntity
  8
0
 62
     0
100
AcDbLine
 10
-72.24017703914829
 20
134.679377123847
 30
0.0
 11
0.6158229608517143
 21
134.679377123847
 31
0.0
  0
LINE
  5
595
330
4D8
100
AcDbEntity
  8
0
 62
     0
100
AcDbLine
 10
100.9218229608517
 20
134.679377123847
 30
0.0
 11
28.0658229608517
 21
134.679377123847
 31
0.0
  0
SOLID
  5
596
330
4D8
100
AcDbEntity
  8
0
 62
     0
100
AcDbTrace
 10
-72.24017703914829
 20
135.129377123847
 30
0.0
 11
-72.24017703914829
 21
134.229377123847
 31
0.0
 12
-74.94017703914829
 22
134.679377123847
 32
0.0
 13
-74.94017703914829
 23
134.679377123847
 33
0.0
  0
SOLID
  5
597
330
4D8
100
AcDbEntity
  8
0
 62
     0
100
AcDbTrace
 10
100.9218229608517
 20
135.129377123847
 30
0.0
 11
100.9218229608517
 21
134.229377123847
 31
0.0
 12
103.6218229608517
 22
134.679377123847
 32
0.0
 13
103.6218229608517
 23
134.679377123847
 33
0.0
  0
MTEXT
  5
598
330
4D8
100
AcDbEntity
  8
0
 62
     0
100
AcDbMText
 10
14.34082296085171
 20
134.679377123847
 30
0.0
 40
2.699999999999999
 41
0.0
 71
     5
 72
     1
  1
\A1;178.6 [7.04]
1001
ACAD
1000
MTEXTBEGIN
1070
    73
1070
     1
1070
    44
1040
1.0
1070
    74
1070
     0
1000
MTEXTEND
  0
POINT
  5
599
330
4D8
100
AcDbEntity
  8
DEFPOINTS
 62
     0
100
AcDbPoint
 10
-74.94017703914829
 20
119.5630384006193
 30
0.0
  0
POINT
  5
59A
330
4D8
100
AcDbEntity
  8
DEFPOINTS
 62
     0
100
AcDbPoint
 10
103.6218229608517
 20
119.5630384006193
 30
0.0
  0
POINT
  5
59B
330
4D8
100
AcDbEntity
  8
DEFPOINTS
 62
     0
100
AcDbPoint
 10
103.6218229608517
 20
134.679377123847
 30
0.0
  0
ENDBLK
  5
4E4
330
4D8
100
AcDbEntity
  8
0
100
AcDbBlockEnd
  0
BLOCK
  5
4FD
330
4F2
100
AcDbEntity
  8
0
100
AcDbBlockBegin
  2
*D18
 70
     1
 10
0.0
 20
0.0
 30
0.0
  3
*D18
  1

  0
LINE
  5
500
330
4F2
100
AcDbEntity
  8
0
 62
     0
100
AcDbLine
 10
104.5593229608517
 20
120.5005384006193
 30
0.0
 11
130.1336683616018
 21
120.5005384006193
 31
0.0
  0
LINE
  5
501
330
4F2
100
AcDbEntity
  8
0
 62
     0
100
AcDbLine
 10
104.5593229608517
 20
-9.976961599380615
 30
0.0
 11
130.1336683616017
 21
-9.976961599380622
 31
0.0
  0
LINE
  5
502
330
4F2
100
AcDbEntity
  8
0
 62
     0
100
AcDbLine
 10
127.4336683616018
 20
117.8005384006193
 30
0.0
 11
127.4336683616018
 21
57.96178840061937
 31
0.0
  0
LINE
  5
503
330
4F2
100
AcDbEntity
  8
0
 62
     0
100
AcDbLine
 10
127.4336683616018
 20
-7.276961599380623
 30
0.0
 11
127.4336683616018
 21
52.56178840061937
 31
0.0
  0
SOLID
  5
504
330
4F2
100
AcDbEntity
  8
0
 62
     0
100
AcDbTrace
 10
126.9836683616018
 20
117.8005384006193
 30
0.0
 11
127.8836683616018
 21
117.8005384006193
 31
0.0
 12
127.4336683616018
 22
120.5005384006193
 32
0.0
 13
127.4336683616018
 23
120.5005384006193
 33
0.0
  0
SOLID
  5
505
330
4F2
100
AcDbEntity
  8
0
 62
     0
100
AcDbTrace
 10
126.9836683616017
 20
-7.276961599380623
 30
0.0
 11
127.8836683616018
 21
-7.276961599380623
 31
0.0
 12
127.4336683616018
 22
-9.976961599380622
 32
0.0
 13
127.4336683616018
 23
-9.976961599380622
 33
0.0
  0
MTEXT
  5
506
330
4F2
100
AcDbEntity
  8
0
 62
     0
100
AcDbMText
 10
127.4336683616018
 20
55.26178840061939
 30
0.0
 40
2.699999999999999
 41
0.0
 71
     5
 72
     1
  1
\A1;130.5 [5.14]
1001
ACAD
1000
MTEXTBEGIN
1070
    73
1070
     1
1070
    44
1040
1.0
1070
    74
1070
     0
1000
MTEXTEND
  0
POINT
  5
507
330
4F2
100
AcDbEntity
  8
DEFPOINTS
 62
     0
100
AcDbPoint
 10
103.6218229608517
 20
120.5005384006193
 30
0.0
  0
POINT
  5
508
330
4F2
100
AcDbEntity
  8
DEFPOINTS
 62
     0
100
AcDbPoint
 10
103.6218229608517
 20
-9.976961599380615
 30
0.0
  0
POINT
  5
509
330
4F2
100
AcDbEntity
  8
DEFPOINTS
 62
     0
100
AcDbPoint
 10
127.4336683616018
 20
-9.976961599380622
 30
0.0
  0
ENDBLK
  5
4FE
330
4F2
100
AcDbEntity
  8
0
100
AcDbBlockEnd
  0
BLOCK
  5
517
330
50C
100
AcDbEntity
  8
0
100
AcDbBlockBegin
  2
*D19
 70
     1
 10
0.0
 20
0.0
 30
0.0
  3
*D19
  1

  0
LINE
  5
588
330
50C
100
AcDbEntity
  8
0
 62
     0
100
AcDbLine
 10
104.5593229608517
 20
106.8630384006193
 30
0.0
 11
126.2966564756895
 21
106.8630384006193
 31
0.0
  0
LINE
  5
589
330
50C
100
AcDbEntity
  8
0
 62
     0
100
AcDbLine
 10
104.3710258069169
 20
2.72303840061938
 30
0.0
 11
126.2966564756895
 21
2.723038400619373
 31
0.0
  0
LINE
  5
58A
330
50C
100
AcDbEntity
  8
0
 62
     0
100
AcDbLine
 10
123.5966564756895
 20
104.1630384006193
 30
0.0
 11
123.5966564756895
 21
57.49303840061938
 31
0.0
  0
LINE
  5
58B
330
50C
100
AcDbEntity
  8
0
 62
     0
100
AcDbLine
 10
123.5966564756895
 20
5.423038400619374
 30
0.0
 11
123.5966564756895
 21
52.09303840061938
 31
0.0
  0
SOLID
  5
58C
330
50C
100
AcDbEntity
  8
0
 62
     0
100
AcDbTrace
 10
123.1466564756895
 20
104.1630384006193
 30
0.0
 11
124.0466564756895
 21
104.1630384006193
 31
0.0
 12
123.5966564756895
 22
106.8630384006193
 32
0.0
 13
123.5966564756895
 23
106.8630384006193
 33
0.0
  0
SOLID
  5
58D
330
50C
100
AcDbEntity
  8
0
 62
     0
100
AcDbTrace
 10
123.1466564756895
 20
5.423038400619374
 30
0.0
 11
124.0466564756895
 21
5.423038400619374
 31
0.0
 12
123.5966564756895
 22
2.723038400619374
 32
0.0
 13
123.5966564756895
 23
2.723038400619374
 33
0.0
  0
MTEXT
  5
58E
330
50C
100
AcDbEntity
  8
0
 62
     0
100
AcDbMText
 10
123.5966564756895
 20
54.7930384006194
 30
0.0
 40
2.699999999999999
 41
0.0
 71
     5
 72
     1
  1
\A1;104.1 [4.10]
1001
ACAD
1000
MTEXTBEGIN
1070
    73
1070
     1
1070
    44
1040
1.0
1070
    74
1070
     0
1000
MTEXTEND
  0
POINT
  5
58F
330
50C
100
AcDbEntity
  8
DEFPOINTS
 62
     0
100
AcDbPoint
 10
103.6218229608517
 20
106.8630384006193
 30
0.0
  0
POINT
  5
590
330
50C
100
AcDbEntity
  8
DEFPOINTS
 62
     0
100
AcDbPoint
 10
103.4335258069169
 20
2.72303840061938
 30
0.0
  0
POINT
  5
591
330
50C
100
AcDbEntity
  8
DEFPOINTS
 62
     0
100
AcDbPoint
 10
123.5966564756895
 20
2.723038400619374
 30
0.0
  0
ENDBLK
  5
518
330
50C
100
AcDbEntity
  8
0
100
AcDbBlockEnd
  0
BLOCK
  5
530
330
52F
100
AcDbEntity
  8
0
100
AcDbBlockBegin
  2
4671T
 70
     0
 10
0.0
 20
0.0
 30
0.0
  3
4671T
  1

  0
INSERT
  5
532
330
52F
100
AcDbEntity
  8
IFS_FIBER_OPTICS
100
AcDbBlockReference
  2
LARGE_2_PIN
 10
-36.74883394564423
 20
-1.568191261830023
 30
0.0
 41
25.4
 42
25.4
 43
25.4
  0
LINE
  5
533
330
52F
100
AcDbEntity
  8
IFS_FIBER_OPTICS
100
AcDbLine
 10
103.6970245312964
 20
73.87151007522823
 30
0.0
 11
112.8410245312964
 21
73.87151007522823
 31
0.0
  0
LINE
  5
534
330
52F
100
AcDbEntity
  8
0
100
AcDbLine
 10
112.8410245312964
 20
93.97608985070496
 30
0.0
 11
103.5913455392403
 21
93.97608985070496
 31
0.0
  0
LINE
  5
535
102
{ACAD_REACTORS
330
4F0
102
}
330
52F
100
AcDbEntity
  8
IFS_FIBER_OPTICS
100
AcDbLine
 10
-74.94017703914829
 20
119.5630384006193
 30
0.0
 11
-74.94017703914827
 21
-9.976961599380615
 31
0.0
  0
LINE
  5
536
102
{ACAD_REACTORS
330
4F0
102
}
330
52F
100
AcDbEntity
  8
IFS_FIBER_OPTICS
100
AcDbLine
 10
103.6218229608517
 20
-9.976961599380615
 30
0.0
 11
103.6218229608517
 21
119.5630384006193
 31
0.0
  0
LINE
  5
537
330
52F
100
AcDbEntity
  8
IFS_FIBER_OPTICS
100
AcDbLine
 10
-74.94017703914827
 20
-9.976961599380615
 30
0.0
 11
103.6218229608517
 21
-9.976961599380615
 31
0.0
  0
LINE
  5
538
330
52F
100
AcDbEntity
  8
IFS_FIBER_OPTICS
100
AcDbLine
 10
-74.94017703914827
 20
2.72303840061938
 30
0.0
 11
103.6218229608517
 21
2.72303840061938
 31
0.0
  0
ARC
  5
539
330
52F
100
AcDbEntity
  8
IFS_FIBER_OPTICS
100
AcDbCircle
 10
-55.65507708019449
 20
-4.612350844367469
 30
0.0
 40
3.556
100
AcDbArc
 50
213.8584366594589
 51
326.1415633405438
  0
ARC
  5
53A
330
52F
100
AcDbEntity
  8
IFS_FIBER_OPTICS
100
AcDbCircle
 10
-55.65507708019449
 20
-4.612350844367469
 30
0.0
 40
3.556
100
AcDbArc
 50
33.85843665945611
 51
146.1415633405438
  0
ARC
  5
53B
330
52F
100
AcDbEntity
  8
IFS_FIBER_OPTICS
100
AcDbCircle
 10
-62.00507708019448
 20
-4.612350844367469
 30
0.0
 40
1.981199999999999
100
AcDbArc
 50
90.0
 51
270.0
  0
LINE
  5
53C
330
52F
100
AcDbEntity
  8
IFS_FIBER_OPTICS
100
AcDbLine
 10
-62.00507708019448
 20
-6.593550844367477
 30
0.0
 11
-58.60803873927506
 21
-6.593550844367477
 31
0.0
  0
LINE
  5
53D
330
52F
100
AcDbEntity
  8
IFS_FIBER_OPTICS
100
AcDbLine
 10
-62.00507708019445
 20
-2.631150844367461
 30
0.0
 11
-58.60803873927506
 21
-2.631150844367461
 31
0.0
  0
LINE
  5
53E
330
52F
100
AcDbEntity
  8
IFS_FIBER_OPTICS
100
AcDbLine
 10
-52.7021154211139
 20
-2.631150844367461
 30
0.0
 11
-49.30507708019447
 21
-2.631150844367439
 31
0.0
  0
LINE
  5
53F
330
52F
100
AcDbEntity
  8
IFS_FIBER_OPTICS
100
AcDbLine
 10
-52.7021154211139
 20
-6.593550844367477
 30
0.0
 11
-49.30507708019447
 21
-6.593550844367477
 31
0.0
  0
ARC
  5
540
330
52F
100
AcDbEntity
  8
IFS_FIBER_OPTICS
100
AcDbCircle
 10
-49.30507708019447
 20
-4.612350844367469
 30
0.0
 40
1.981199999999999
100
AcDbArc
 50
270.0
 51
90.0
  0
ARC
  5
541
330
52F
100
AcDbEntity
  8
IFS_FIBER_OPTICS
100
AcDbCircle
 10
84.04492291980551
 20
-4.612350844367469
 30
0.0
 40
3.556
100
AcDbArc
 50
213.8584366594589
 51
326.1415633405438
  0
LINE
  5
542
330
52F
100
AcDbEntity
  8
0
100
AcDbLine
 10
92.72664757006058
 20
22.13089783374653
 30
0.0
 11
92.72664757006058
 21
19.85850317928211
 31
0.0
  0
LINE
  5
543
330
52F
100
AcDbEntity
  8
0
100
AcDbLine
 10
91.6928057090662
 20
23.37038588497625
 30
0.0
 11
91.6928057090662
 21
20.47824688652682
 31
0.0
  0
MTEXT
  5
544
330
52F
100
AcDbEntity
  8
IFS_FIBER_OPTICS
100
AcDbMText
 10
99.14902956762833
 20
22.51596883441654
 30
0.0
 40
2.54
 41
4.08178
 71
     4
 72
     5
  1
{\fArial|b0|i0|c0|p34;-2}
1001
ACAD
1000
MTEXTBEGIN
1070
    73
1070
     1
1070
    44
1040
1.0
1070
    74
1070
     0
1000
MTEXTEND
  0
LWPOLYLINE
  5
545
330
52F
100
AcDbEntity
  8
IFS_FIBER_OPTICS
100
AcDbPolyline
 90
        4
 70
     0
 43
0.254
 10
75.74058492319792
 20
20.05697254068425
 10
78.28058492319792
 20
20.05697254068425
 10
78.28058492319792
 20
26.40697254068426
 10
82.09058492319792
 20
26.40697254068426
  0
MTEXT
  5
546
330
52F
100
AcDbEntity
  8
IFS_FIBER_OPTICS
100
AcDbMText
 10
69.01195189619688
 20
20.2320022251903
 30
0.0
 40
2.54
 41
25.59304
 71
     5
 72
     5
  1
{\fArial|b0|i0|c0|p34;POWER}
1001
ACAD
1000
MTEXTBEGIN
1070
    73
1070
     1
1070
    44
1040
1.0
1070
    74
1070
     0
1000
MTEXTEND
  0
ARC
  5
547
330
52F
100
AcDbEntity
  8
IFS_FIBER_OPTICS
100
AcDbCircle
 10
84.04492291980551
 20
-4.612350844367469
 30
0.0
 40
3.556
100
AcDbArc
 50
33.85843665945611
 51
146.1415633405438
  0
LWPOLYLINE
  5
548
330
52F
100
AcDbEntity
  8
IFS_FIBER_OPTICS
100
AcDbPolyline
 90
        4
 70
     0
 43
0.254
 10
75.74058492319792
 20
20.05697254068425
 10
78.28058492319792
 20
20.05697254068425
 10
78.28058492319792
 20
13.70697254068425
 10
82.09058492319792
 20
13.70697254068425
  0
ARC
  5
549
330
52F
100
AcDbEntity
  8
IFS_FIBER_OPTICS
100
AcDbCircle
 10
77.69492291980552
 20
-4.612350844367469
 30
0.0
 40
1.981199999999999
100
AcDbArc
 50
90.0
 51
270.0
  0
LINE
  5
54A
330
52F
100
AcDbEntity
  8
IFS_FIBER_OPTICS
100
AcDbLine
 10
77.69492291980552
 20
-6.593550844367477
 30
0.0
 11
81.09196126072493
 21
-6.593550844367477
 31
0.0
  0
LINE
  5
54B
330
52F
100
AcDbEntity
  8
IFS_FIBER_OPTICS
100
AcDbLine
 10
77.69492291980554
 20
-2.631150844367461
 30
0.0
 11
81.09196126072493
 21
-2.631150844367461
 31
0.0
  0
LINE
  5
54C
102
{ACAD_REACTORS
330
524
102
}
330
52F
100
AcDbEntity
  8
IFS_FIBER_OPTICS
100
AcDbLine
 10
103.4335258069169
 20
2.72303840061938
 30
0.0
 11
90.73352580691693
 21
2.72303840061938
 31
0.0
  0
LINE
  5
54D
330
52F
100
AcDbEntity
  8
IFS_FIBER_OPTICS
100
AcDbLine
 10
86.9978845788861
 20
-2.631150844367461
 30
0.0
 11
90.39492291980556
 21
-2.631150844367439
 31
0.0
  0
LINE
  5
54E
330
52F
100
AcDbEntity
  8
IFS_FIBER_OPTICS
100
AcDbLine
 10
86.9978845788861
 20
-6.593550844367477
 30
0.0
 11
90.3949229198055
 21
-6.593550844367477
 31
0.0
  0
ARC
  5
54F
330
52F
100
AcDbEntity
  8
IFS_FIBER_OPTICS
100
AcDbCircle
 10
90.3949229198055
 20
-4.612350844367469
 30
0.0
 40
1.981199999999999
100
AcDbArc
 50
270.0
 51
90.0
  0
MTEXT
  5
550
330
52F
100
AcDbEntity
  8
IFS_FIBER_OPTICS
100
AcDbMText
 10
97.5915258069169
 20
17.43596883441656
 30
0.0
 40
2.54
 41
21.59
 71
     6
 72
     5
  1
{\fArial|b0|i0|c0|p34;+12 VDC}
1001
ACAD
1000
MTEXTBEGIN
1070
    73
1070
     1
1070
    44
1040
1.0
1070
    74
1070
     0
1000
MTEXTEND
  0
MTEXT
  5
551
330
52F
100
AcDbEntity
  8
IFS_FIBER_OPTICS
100
AcDbMText
 10
99.14902956762833
 20
17.43596883441656
 30
0.0
 40
2.54
 41
4.081149176796269
 71
     4
 72
     5
  1
{\fArial|b0|i0|c0|p34;-1}
1001
ACAD
1000
MTEXTBEGIN
1070
    73
1070
     1
1070
    44
1040
1.0
1070
    74
1070
     0
1000
MTEXTEND
  0
LINE
  5
552
330
52F
100
AcDbEntity
  8
0
100
AcDbLine
 10
97.06878670377818
 20
22.13089783374653
 30
0.0
 11
92.72664757006058
 21
22.13089783374653
 31
0.0
  0
LINE
  5
553
330
52F
100
AcDbEntity
  8
0
100
AcDbLine
 10
92.72664757006058
 20
22.13089783374653
 30
0.0
 11
92.72664757006058
 21
24.40329248821095
 31
0.0
  0
LINE
  5
554
330
52F
100
AcDbEntity
  8
0
100
AcDbLine
 10
90.86573079846742
 20
22.54406072973655
 30
0.0
 11
90.86573079846742
 21
21.30457267850675
 31
0.0
  0
LINE
  5
555
102
{ACAD_REACTORS
330
524
102
}
330
52F
100
AcDbEntity
  8
IFS_FIBER_OPTICS
100
AcDbLine
 10
103.6218229608517
 20
106.8630384006193
 30
0.0
 11
-74.94017703914829
 21
106.8630384006193
 31
0.0
  0
LINE
  5
556
330
52F
100
AcDbEntity
  8
IFS_FIBER_OPTICS
100
AcDbLine
 10
103.6218229608517
 20
119.5630384006193
 30
0.0
 11
-74.94017703914829
 21
119.5630384006193
 31
0.0
  0
INSERT
  5
557
330
52F
100
AcDbEntity
  8
IFS_FIBER_OPTICS
100
AcDbBlockReference
  2
ST_CONN
 10
67.17831283280307
 20
-21.77429990314623
 30
0.0
 41
-25.4
 42
25.4
 43
25.4
  0
INSERT
  5
558
330
52F
100
AcDbEntity
  8
IFS_FIBER_OPTICS
100
AcDbBlockReference
  2
ST_CONN
 10
67.17831283280307
 20
-3.486299903146218
 30
0.0
 41
-25.4
 42
25.4
 43
25.4
  0
LWPOLYLINE
  5
559
330
52F
100
AcDbEntity
  8
IFS_FIBER_OPTICS
100
AcDbPolyline
 90
        4
 70
     0
 43
0.254
 10
-73.03517703914828
 20
93.90903840061938
 10
-69.22517703914829
 20
93.90903840061938
 10
-69.22517703914829
 20
77.39903840061941
 10
-73.03517703914828
 20
77.39903840061941
  0
MTEXT
  5
55A
330
52F
100
AcDbEntity
  8
IFS_FIBER_OPTICS
100
AcDbMText
 10
-67.09797020667764
 20
67.45141470799913
 30
0.0
 40
2.54
 41
27.34564
 71
     4
 72
     5
  1
{\fArial|b0|i0|c0|p34;DATA\PXTMR}
1001
ACAD
1000
MTEXTBEGIN
1070
    73
1070
     1
1070
    44
1040
1.0
1070
    74
1070
     0
1000
MTEXTEND
  0
LWPOLYLINE
  5
55B
330
52F
100
AcDbEntity
  8
IFS_FIBER_OPTICS
100
AcDbPolyline
 90
        4
 70
     0
 43
0.254
 10
-73.03517703914828
 20
75.6210384006194
 10
-69.22517703914829
 20
75.6210384006194
 10
-69.22517703914829
 20
59.1110384006194
 10
-73.03517703914829
 20
59.1110384006194
  0
MTEXT
  5
55C
330
52F
100
AcDbEntity
  8
IFS_FIBER_OPTICS
100
AcDbMText
 10
-72.97382946250253
 20
56.105385593563
 30
0.0
 40
2.54
 41
36.66489999999999
 71
     1
 72
     5
  1
{\fArial|b0|i0|c0|p34;POWER}
1001
ACAD
1000
MTEXTBEGIN
1070
    73
1070
     1
1070
    44
1040
1.0
1070
    74
1070
     0
1000
MTEXTEND
  0
MTEXT
  5
55D
330
52F
100
AcDbEntity
  8
IFS_FIBER_OPTICS
100
AcDbMText
 10
-67.09797020667764
 20
85.73941470799914
 30
0.0
 40
2.54
 41
27.34564
 71
     4
 72
     5
  1
{\fArial|b0|i0|c0|p34;DATA\PREC}
1001
ACAD
1000
MTEXTBEGIN
1070
    73
1070
     1
1070
    44
1040
1.0
1070
    74
1070
     0
1000
MTEXTEND
  0
ARC
  5
55E
330
52F
100
AcDbEntity
  8
IFS_FIBER_OPTICS
100
AcDbCircle
 10
-55.65507708019449
 20
114.7676491556325
 30
0.0
 40
3.556
100
AcDbArc
 50
213.8584366594589
 51
326.1415633405438
  0
ARC
  5
55F
330
52F
100
AcDbEntity
  8
IFS_FIBER_OPTICS
100
AcDbCircle
 10
-55.65507708019449
 20
114.7676491556325
 30
0.0
 40
3.556
100
AcDbArc
 50
33.85843665945611
 51
146.1415633405438
  0
ARC
  5
560
330
52F
100
AcDbEntity
  8
IFS_FIBER_OPTICS
100
AcDbCircle
 10
-62.00507708019448
 20
114.7676491556325
 30
0.0
 40
1.981199999999999
100
AcDbArc
 50
90.0
 51
270.0
  0
LINE
  5
561
330
52F
100
AcDbEntity
  8
IFS_FIBER_OPTICS
100
AcDbLine
 10
-62.00507708019448
 20
112.7864491556325
 30
0.0
 11
-58.60803873927506
 21
112.7864491556325
 31
0.0
  0
LINE
  5
562
330
52F
100
AcDbEntity
  8
IFS_FIBER_OPTICS
100
AcDbLine
 10
-62.00507708019445
 20
116.7488491556325
 30
0.0
 11
-58.60803873927506
 21
116.7488491556325
 31
0.0
  0
LINE
  5
563
330
52F
100
AcDbEntity
  8
IFS_FIBER_OPTICS
100
AcDbLine
 10
-52.7021154211139
 20
116.7488491556325
 30
0.0
 11
-49.30507708019447
 21
116.7488491556325
 31
0.0
  0
LINE
  5
564
330
52F
100
AcDbEntity
  8
IFS_FIBER_OPTICS
100
AcDbLine
 10
-52.7021154211139
 20
112.7864491556325
 30
0.0
 11
-49.30507708019447
 21
112.7864491556325
 31
0.0
  0
ARC
  5
565
330
52F
100
AcDbEntity
  8
IFS_FIBER_OPTICS
100
AcDbCircle
 10
-49.30507708019447
 20
114.7676491556325
 30
0.0
 40
1.981199999999999
100
AcDbArc
 50
270.0
 51
90.0
  0
HATCH
  5
566
330
52F
100
AcDbEntity
  8
VORDERGRUND
 62
     7
100
AcDbHatch
 10
0.0
 20
0.0
 30
0.0
210
0.0
220
0.0
230
1.0
  2
SOLID
 70
     1
 71
     0
 91
        8
 92
        1
 93
        1
 72
     4
 94
        3
 73
     0
 74
     0
 95
       41
 96
       37
 40
0.0
 40
0.0
 40
0.0
 40
0.0
 40
1.0
 40
1.0
 40
1.0
 40
2.0
 40
2.0
 40
2.0
 40
3.0
 40
3.0
 40
3.0
 40
4.0
 40
4.0
 40
4.0
 40
5.0
 40
5.0
 40
5.0
 40
6.0
 40
6.0
 40
6.0
 40
7.0
 40
7.0
 40
7.0
 40
8.0
 40
8.0
 40
8.0
 40
9.0
 40
9.0
 40
9.0
 40
10.0
 40
10.0
 40
10.0
 40
11.0
 40
11.0
 40
11.0
 40
12.0
 40
12.0
 40
12.0
 40
12.0
 10
29.96482621758293
 20
66.15416077779896
 10
29.96482621758293
 20
66.15416077779896
 10
28.38360891419767
 20
66.15416077779896
 10
28.38360891419767
 20
66.15416077779896
 10
28.38360891419767
 20
66.15416077779896
 10
28.38360891419767
 20
68.51937479537699
 10
28.38360891419767
 20
68.51937479537699
 10
28.38360891419767
 20
68.51937479537699
 10
26.56546385039538
 20
68.51937479537699
 10
26.56546385039538
 20
68.51937479537699
 10
26.56546385039538
 20
68.51937479537699
 10
26.56546385039538
 20
66.15416077779896
 10
26.56546385039538
 20
66.15416077779896
 10
26.56546385039538
 20
66.15416077779896
 10
24.99306246367675
 20
66.15416077779896
 10
24.99306246367675
 20
66.15416077779896
 10
24.99306246367675
 20
66.15416077779896
 10
24.99306246367675
 20
72.15139471334584
 10
24.99306246367675
 20
72.15139471334584
 10
24.99306246367675
 20
72.15139471334584
 10
26.56546385039538
 20
72.15139471334584
 10
26.56546385039538
 20
72.15139471334584
 10
26.56546385039538
 20
72.15139471334584
 10
26.56546385039538
 20
69.94555593925729
 10
26.56546385039538
 20
69.94555593925729
 10
26.56546385039538
 20
69.94555593925729
 10
28.38360891419767
 20
69.94555593925729
 10
28.38360891419767
 20
69.94555593925729
 10
28.38360891419767
 20
69.94555593925729
 10
28.38360891419767
 20
72.15139471334584
 10
28.38360891419767
 20
72.15139471334584
 10
28.38360891419767
 20
72.15139471334584
 10
29.96482621758293
 20
72.15139471334584
 10
29.96482621758293
 20
72.15139471334584
 10
29.96482621758293
 20
72.15139471334584
 10
29.96482621758293
 20
66.15416077779896
 10
29.96482621758293
 20
66.15416077779896
 97
        0
 92
        1
 93
        1
 72
     4
 94
        3
 73
     0
 74
     0
 95
       35
 96
       31
 40
0.0
 40
0.0
 40
0.0
 40
0.0
 40
1.0
 40
1.0
 40
1.0
 40
2.0
 40
2.0
 40
2.0
 40
3.0
 40
3.0
 40
3.0
 40
4.0
 40
4.0
 40
4.0
 40
5.0
 40
5.0
 40
5.0
 40
6.0
 40
6.0
 40
6.0
 40
7.0
 40
7.0
 40
7.0
 40
8.0
 40
8.0
 40
8.0
 40
9.0
 40
9.0
 40
9.0
 40
10.0
 40
10.0
 40
10.0
 40
10.0
 10
24.49234594674969
 20
67.31462468339774
 10
23.87757350794756
 20
66.4288316814448
 10
23.30646740638497
 20
66.01241736764267
 10
22.12086436341639
 20
66.01241736764267
 10
20.4341315574268
 20
66.01241736764267
 10
19.34495260299966
 20
67.412081887174
 10
19.34495260299966
 20
69.19262155644465
 10
19.34495260299966
 20
70.88458881295503
 10
20.32875380352054
 20
72.2931381235021
 10
22.13835844805168
 20
72.2931381235021
 10
23.13083781654138
 20
72.2931381235021
 10
23.84230984128096
 20
71.90337818274679
 10
24.44854186081208
 20
70.99086193339778
 10
24.44854186081208
 20
70.99086193339778
 10
23.23621557044764
 20
70.1847565531896
 10
23.23621557044764
 20
70.1847565531896
 10
22.99033414466632
 20
70.61005565800726
 10
22.67406313424973
 20
70.85800331425726
 10
22.1470366160205
 20
70.85800331425726
 10
21.47950642591633
 20
70.85800331425726
 10
20.83828623711422
 20
70.26127595488215
 10
20.83828623711422
 20
69.19262155644465
 10
20.83828623711422
 20
67.99496550240828
 10
21.53212642852043
 20
67.44755217688752
 10
22.19097845065591
 20
67.44755217688752
 10
22.76194680352057
 20
67.44755217688752
 10
23.02546006263512
 20
67.73097012285105
 10
23.27134148841631
 20
68.1384307712884
 10
23.27134148841631
 20
68.1384307712884
 10
24.49234594674969
 20
67.31462468339774
 10
24.49234594674969
 20
67.31462468339774
 97
        0
 92
        1
 93
        1
 72
     4
 94
        3
 73
     0
 74
     0
 95
       53
 96
       49
 40
0.0
 40
0.0
 40
0.0
 40
0.0
 40
1.0
 40
1.0
 40
1.0
 40
2.0
 40
2.0
 40
2.0
 40
3.0
 40
3.0
 40
3.0
 40
4.0
 40
4.0
 40
4.0
 40
5.0
 40
5.0
 40
5.0
 40
6.0
 40
6.0
 40
6.0
 40
7.0
 40
7.0
 40
7.0
 40
8.0
 40
8.0
 40
8.0
 40
9.0
 40
9.0
 40
9.0
 40
10.0
 40
10.0
 40
10.0
 40
11.0
 40
11.0
 40
11.0
 40
12.0
 40
12.0
 40
12.0
 40
13.0
 40
13.0
 40
13.0
 40
14.0
 40
14.0
 40
14.0
 40
15.0
 40
15.0
 40
15.0
 40
16.0
 40
16.0
 40
16.0
 40
16.0
 10
18.94079792331224
 20
67.97023961113217
 10
18.94079792331224
 20
66.6501938389968
 10
17.74624121497884
 20
66.01241736764267
 10
16.62193634258303
 20
66.01241736764267
 10
15.32179525729645
 20
66.01241736764267
 10
14.65426506719243
 20
66.50851930318956
 10
14.12723854896319
 20
67.13741098352814
 10
14.12723854896319
 20
67.13741098352814
 10
15.08472974818203
 20
68.07651273157493
 10
15.08472974818203
 20
68.07651273157493
 10
15.4887466791715
 20
67.56264121399677
 10
16.01584207174971
 20
67.30573989238222
 10
16.60444225794761
 20
67.30573989238222
 10
17.0875269415413
 20
67.30573989238222
 10
17.41247611992669
 20
67.54487163196549
 10
17.41247611992669
 20
67.89929903170511
 10
17.41247611992669
 20
68.2802430557937
 10
17.12527008477047
 20
68.39877581035086
 10
16.34079125013511
 20
68.56372987610628
 10
16.34079125013511
 20
68.56372987610628
 10
16.13003574232259
 20
68.6080160824863
 10
16.13003574232259
 20
68.6080160824863
 10
15.18494192591636
 20
68.80651195618432
 10
14.40824589271317
 20
69.34318088326765
 10
14.40824589271317
 20
70.41507237610615
 10
14.40824589271317
 20
71.59330586373645
 10
15.36573709193201
 20
72.30202291451764
 10
16.6306145105517
 20
72.30202291451764
 10
17.70243712904137
 20
72.30202291451764
 10
18.39627732044757
 20
71.8413912686843
 10
18.81792608477041
 20
71.36299004081966
 10
18.81792608477041
 20
71.36299004081966
 10
17.8868826355517
 20
70.44165787480415
 10
17.8868826355517
 20
70.44165787480415
 10
17.59678387773922
 20
70.75173019381451
 10
17.15764102878095
 20
70.99974672441354
 10
16.65692451185389
 20
70.99974672441354
 10
16.31448124883307
 20
70.99974672441354
 10
15.92802727682772
 20
70.84030260657501
 10
15.92802727682772
 20
70.44165787480415
 10
15.92802727682772
 20
70.07848343274685
 10
16.33032234909344
 20
69.94672680318952
 10
16.84137001836423
 20
69.83921394446548
 10
16.84137001836423
 20
69.83921394446548
 10
17.05226327487469
 20
69.79492773808525
 10
17.05226327487469
 20
69.79492773808525
 10
17.90768268893723
 20
69.61537231035094
 10
18.94079792331224
 20
69.35199679993438
 10
18.94079792331224
 20
67.97023961113217
 97
        0
 92
        1
 93
        1
 72
     4
 94
        3
 73
     0
 74
     0
 95
       17
 96
       13
 40
0.0
 40
0.0
 40
0.0
 40
0.0
 40
1.0
 40
1.0
 40
1.0
 40
2.0
 40
2.0
 40
2.0
 40
3.0
 40
3.0
 40
3.0
 40
4.0
 40
4.0
 40
4.0
 40
4.0
 10
13.94272416810388
 20
69.15715126673112
 10
13.94272416810388
 20
67.39431230514272
 10
12.93240634323403
 20
66.01241736764267
 10
11.18458198971832
 20
66.01241736764267
 10
9.44529805547361
 20
66.01241736764267
 10
8.426370936983927
 20
67.39431230514272
 10
8.426370936983927
 20
69.15715126673112
 10
8.426370936983927
 20
70.91117431165304
 10
9.44529805547361
 20
72.30202291451764
 10
11.18451311536948
 20
72.30202291451764
 10
12.93240634323403
 20
72.30202291451764
 10
13.94272416810388
 20
70.91117431165304
 10
13.94272416810388
 20
69.15715126673112
 97
        0
 92
        1
 93
        1
 72
     4
 94
        3
 73
     0
 74
     0
 95
       26
 96
       22
 40
0.0
 40
0.0
 40
0.0
 40
0.0
 40
1.0
 40
1.0
 40
1.0
 40
2.0
 40
2.0
 40
2.0
 40
3.0
 40
3.0
 40
3.0
 40
4.0
 40
4.0
 40
4.0
 40
5.0
 40
5.0
 40
5.0
 40
6.0
 40
6.0
 40
6.0
 40
7.0
 40
7.0
 40
7.0
 40
7.0
 10
8.031169922661204
 20
67.8284962009759
 10
8.031169922661204
 20
66.81852274785085
 10
7.100057599093519
 20
66.15416077779896
 10
6.160060484510108
 20
66.15416077779896
 10
6.160060484510108
 20
66.15416077779896
 10
3.094532086723621
 20
66.15416077779896
 10
3.094532086723621
 20
66.15416077779896
 10
3.094532086723621
 20
66.15416077779896
 10
3.094532086723621
 20
72.15139471334584
 10
3.094532086723621
 20
72.15139471334584
 10
3.094532086723621
 20
72.15139471334584
 10
5.905363142062173
 20
72.15139471334584
 10
5.905363142062173
 20
72.15139471334584
 10
6.985795054171534
 20
72.15139471334584
 10
7.767656663546654
 20
71.6110065714187
 10
7.767656663546654
 20
70.50371366321548
 10
7.767656663546654
 20
69.55579599850196
 10
6.941922093884953
 20
69.27237805253843
 10
6.941922093884953
 20
69.27237805253843
 10
6.941922093884953
 20
69.26342438717387
 10
8.031169922661204
 20
69.01540785657482
 10
8.031169922661204
 20
67.8284962009759
 97
        0
 92
       16
 93
        1
 72
     4
 94
        3
 73
     0
 74
     0
 95
       17
 96
       13
 40
0.0
 40
0.0
 40
0.0
 40
0.0
 40
1.0
 40
1.0
 40
1.0
 40
2.0
 40
2.0
 40
2.0
 40
3.0
 40
3.0
 40
3.0
 40
4.0
 40
4.0
 40
4.0
 40
4.0
 10
12.46695349297358
 20
69.15715126673112
 10
12.46695349297358
 20
70.0961841404291
 10
12.03662656068193
 20
70.85800331425726
 10
11.18458198971832
 20
70.85800331425726
 10
10.33260629310382
 20
70.85800331425726
 10
9.910888654432007
 20
70.0961841404291
 10
9.910888654432007
 20
69.15715126673112
 10
9.910888654432007
 20
68.20937135071545
 10
10.33253741875485
 20
67.44755217688752
 10
11.18458198971832
 20
67.44755217688752
 10
12.03662656068193
 20
67.44755217688752
 10
12.46695349297358
 20
68.20937135071545
 10
12.46695349297358
 20
69.15715126673112
 97
        0
 92
       16
 93
        1
 72
     4
 94
        3
 73
     0
 74
     0
 95
       20
 96
       16
 40
0.0
 40
0.0
 40
0.0
 40
0.0
 40
1.0
 40
1.0
 40
1.0
 40
2.0
 40
2.0
 40
2.0
 40
3.0
 40
3.0
 40
3.0
 40
4.0
 40
4.0
 40
4.0
 40
5.0
 40
5.0
 40
5.0
 40
5.0
 10
6.239128237114186
 20
70.33524700566356
 10
6.239128237114186
 20
70.67204257206975
 10
6.010809770317404
 20
70.90235839498632
 10
5.668297632947609
 20
70.90235839498632
 10
5.668297632947609
 20
70.90235839498632
 10
4.570233887504878
 20
70.90235839498632
 10
4.570233887504878
 20
70.90235839498632
 10
4.570233887504878
 20
70.90235839498632
 10
4.570233887504878
 20
69.78611182141875
 10
4.570233887504878
 20
69.78611182141875
 10
4.570233887504878
 20
69.78611182141875
 10
5.641918757296593
 20
69.78611182141875
 10
5.641918757296593
 20
69.78611182141875
 10
6.028372729301667
 20
69.78611182141875
 10
6.239128237114186
 20
70.06952976738228
 10
6.239128237114186
 20
70.33524700566356
 97
        0
 92
       16
 93
        1
 72
     4
 94
        3
 73
     0
 74
     0
 95
       20
 96
       16
 40
0.0
 40
0.0
 40
0.0
 40
0.0
 40
1.0
 40
1.0
 40
1.0
 40
2.0
 40
2.0
 40
2.0
 40
3.0
 40
3.0
 40
3.0
 40
4.0
 40
4.0
 40
4.0
 40
5.0
 40
5.0
 40
5.0
 40
5.0
 10
6.432458534640387
 20
67.99675623548115
 10
6.432458534640387
 20
68.34229884420503
 10
6.177692317843343
 20
68.5813617094395
 10
5.641918757296593
 20
68.5813617094395
 10
5.641918757296593
 20
68.5813617094395
 10
4.570233887504878
 20
68.5813617094395
 10
4.570233887504878
 20
68.5813617094395
 10
4.570233887504878
 20
68.5813617094395
 10
4.570233887504878
 20
67.40319709615824
 10
4.570233887504878
 20
67.40319709615824
 10
4.570233887504878
 20
67.40319709615824
 10
5.668297632947609
 20
67.40319709615824
 10
5.668297632947609
 20
67.40319709615824
 10
6.116187524223663
 20
67.40319709615824
 10
6.432458534640387
 20
67.56264121399677
 10
6.432458534640387
 20
67.99675623548115
 97
        0
 75
     0
 76
     1
 98
        1
 10
3.094532086723621
 20
73.95528278691347
  0
MTEXT
  5
567
330
52F
100
AcDbEntity
  8
IFS_FIBER_OPTICS
100
AcDbMText
 10
17.75295945910039
 20
97.81888401751249
 30
0.0
 40
2.54
 41
107.8458599999999
 71
     5
 72
     5
  1
{\fArial|b0|i0|c0|p34;LTC 4671\PRS485}
1001
ACAD
1000
MTEXTBEGIN
1070
    73
1070
     1
1070
    44
1040
1.0
1070
    74
1070
     0
1000
MTEXTEND
  0
MTEXT
  5
568
330
52F
100
AcDbEntity
  8
IFS_FIBER_OPTICS
100
AcDbMText
 10
99.14902956762833
 20
76.61796883441656
 30
0.0
 40
2.54
 41
4.081149176796269
 71
     4
 72
     5
  1
{\fArial|b0|i0|c0|p34;-1}
1001
ACAD
1000
MTEXTBEGIN
1070
    73
1070
     1
1070
    44
1040
1.0
1070
    74
1070
     0
1000
MTEXTEND
  0
MTEXT
  5
569
330
52F
100
AcDbEntity
  8
0
100
AcDbMText
 10
81.35437880526945
 20
78.27590808070837
 30
0.0
 40
2.54
 41
16.12794416897219
 71
     1
 72
     5
  1
+ DATA
1001
ACAD
1000
MTEXTBEGIN
1070
    73
1070
     1
1070
    44
1040
1.0
1070
    74
1070
     0
1000
MTEXTEND
  0
LINE
  5
56A
330
52F
100
AcDbEntity
  8
IFS_FIBER_OPTICS
100
AcDbLine
 10
103.6970245312964
 20
89.11151007522821
 30
0.0
 11
103.6970245312964
 21
73.87151007522823
 31
0.0
  0
LINE
  5
56B
330
52F
100
AcDbEntity
  8
IFS_FIBER_OPTICS
100
AcDbLine
 10
110.2854792243694
 20
78.09140428664207
 30
0.0
 11
107.5149756660059
 21
75.67324884474789
 31
0.0
  0
CIRCLE
  5
56C
330
52F
100
AcDbEntity
  8
IFS_FIBER_OPTICS
100
AcDbCircle
 10
109.2278511286028
 20
76.50696501325703
 30
0.0
 40
1.904999999999999
  0
LINE
  5
56D
330
52F
100
AcDbEntity
  8
IFS_FIBER_OPTICS
100
AcDbLine
 10
108.0977048944633
 20
74.97340885534811
 30
0.0
 11
110.9269842834254
 21
77.36834270172048
 31
0.0
  0
LINE
  5
56E
330
52F
100
AcDbEntity
  8
POWER_LED
100
AcDbLine
 10
109.2278511286028
 20
76.50696501325703
 30
0.0
 11
109.2278511286028
 21
76.50696501325703
 31
0.0
  0
MTEXT
  5
56F
330
52F
100
AcDbEntity
  8
0
100
AcDbMText
 10
81.1476094852016
 20
82.61411594164229
 30
0.0
 40
2.54
 41
16.74825094433933
 71
     1
 72
     5
  1
- DATA
1001
ACAD
1000
MTEXTBEGIN
1070
    73
1070
     1
1070
    44
1040
1.0
1070
    74
1070
     0
1000
MTEXTEND
  0
MTEXT
  5
570
330
52F
100
AcDbEntity
  8
0
100
AcDbMText
 10
97.38829081876586
 20
92.53002035148014
 30
0.0
 40
2.54
 41
6.193702808334704
 71
     1
 72
     5
  1
-4
1001
ACAD
1000
MTEXTBEGIN
1070
    73
1070
     1
1070
    44
1040
1.0
1070
    74
1070
     0
1000
MTEXTEND
  0
CIRCLE
  5
571
330
52F
100
AcDbEntity
  8
IFS_FIBER_OPTICS
100
AcDbCircle
 10
109.2278511286028
 20
91.3283336438025
 30
0.0
 40
1.904999999999999
  0
LINE
  5
572
330
52F
100
AcDbEntity
  8
IFS_FIBER_OPTICS
100
AcDbLine
 10
110.2854792243694
 20
92.91277291718754
 30
0.0
 11
107.5149756660059
 21
90.49461747529335
 31
0.0
  0
LINE
  5
573
330
52F
100
AcDbEntity
  8
IFS_FIBER_OPTICS
100
AcDbLine
 10
108.0977048944633
 20
89.79477748589358
 30
0.0
 11
110.9269842834254
 21
92.18971133226594
 31
0.0
  0
MTEXT
  5
574
330
52F
100
AcDbEntity
  8
IFS_FIBER_OPTICS
100
AcDbMText
 10
99.14902956762833
 20
81.69796883441653
 30
0.0
 40
2.54
 41
4.08178
 71
     4
 72
     5
  1
{\fArial|b0|i0|c0|p34;-2}
1001
ACAD
1000
MTEXTBEGIN
1070
    73
1070
     1
1070
    44
1040
1.0
1070
    74
1070
     0
1000
MTEXTEND
  0
LINE
  5
575
330
52F
100
AcDbEntity
  8
IFS_FIBER_OPTICS
100
AcDbLine
 10
110.2854792243694
 20
83.17140428664208
 30
0.0
 11
107.5149756660059
 21
80.7532488447479
 31
0.0
  0
CIRCLE
  5
576
330
52F
100
AcDbEntity
  8
IFS_FIBER_OPTICS
100
AcDbCircle
 10
109.2278511286028
 20
81.58696501325705
 30
0.0
 40
1.904999999999999
  0
LINE
  5
577
330
52F
100
AcDbEntity
  8
IFS_FIBER_OPTICS
100
AcDbLine
 10
108.0977048944633
 20
80.05340885534812
 30
0.0
 11
110.9269842834254
 21
82.44834270172047
 31
0.0
  0
LINE
  5
578
330
52F
100
AcDbEntity
  8
POWER_LED
100
AcDbLine
 10
109.2278511286028
 20
81.58696501325705
 30
0.0
 11
109.2278511286028
 21
81.58696501325705
 31
0.0
  0
MTEXT
  5
579
330
52F
100
AcDbEntity
  8
IFS_FIBER_OPTICS
100
AcDbMText
 10
99.14902956762833
 20
86.77796883441656
 30
0.0
 40
2.54
 41
4.08178
 71
     4
 72
     5
  1
{\fArial|b0|i0|c0|p34;-3}
1001
ACAD
1000
MTEXTBEGIN
1070
    73
1070
     1
1070
    44
1040
1.0
1070
    74
1070
     0
1000
MTEXTEND
  0
LINE
  5
57A
330
52F
100
AcDbEntity
  8
IFS_FIBER_OPTICS
100
AcDbLine
 10
110.2854792243694
 20
88.25140428664211
 30
0.0
 11
107.5149756660059
 21
85.83324884474789
 31
0.0
  0
CIRCLE
  5
57B
330
52F
100
AcDbEntity
  8
IFS_FIBER_OPTICS
100
AcDbCircle
 10
109.2278511286028
 20
86.66696501325702
 30
0.0
 40
1.904999999999999
  0
LINE
  5
57C
330
52F
100
AcDbEntity
  8
IFS_FIBER_OPTICS
100
AcDbLine
 10
108.0977048944633
 20
85.13340885534811
 30
0.0
 11
110.9269842834254
 21
87.52834270172048
 31
0.0
  0
LINE
  5
57D
330
52F
100
AcDbEntity
  8
POWER_LED
100
AcDbLine
 10
109.2278511286028
 20
86.66696501325702
 30
0.0
 11
109.2278511286028
 21
86.66696501325702
 31
0.0
  0
LINE
  5
57E
330
52F
100
AcDbEntity
  8
POWER_LED
100
AcDbLine
 10
109.2278511286028
 20
91.3283336438025
 30
0.0
 11
109.2278511286028
 21
91.3283336438025
 31
0.0
  0
ARC
  5
57F
330
52F
100
AcDbEntity
  8
IFS_FIBER_OPTICS
100
AcDbCircle
 10
84.04492291980551
 20
114.7676491556325
 30
0.0
 40
3.556
100
AcDbArc
 50
33.85843665945611
 51
146.1415633405438
  0
ARC
  5
580
330
52F
100
AcDbEntity
  8
IFS_FIBER_OPTICS
100
AcDbCircle
 10
84.04492291980551
 20
114.7676491556325
 30
0.0
 40
3.556
100
AcDbArc
 50
213.8584366594589
 51
326.1415633405438
  0
ARC
  5
581
330
52F
100
AcDbEntity
  8
IFS_FIBER_OPTICS
100
AcDbCircle
 10
77.69492291980552
 20
114.7676491556325
 30
0.0
 40
1.981199999999999
100
AcDbArc
 50
90.0
 51
270.0
  0
LINE
  5
582
330
52F
100
AcDbEntity
  8
IFS_FIBER_OPTICS
100
AcDbLine
 10
77.69492291980552
 20
112.7864491556325
 30
0.0
 11
81.09196126072493
 21
112.7864491556325
 31
0.0
  0
LINE
  5
583
330
52F
100
AcDbEntity
  8
IFS_FIBER_OPTICS
100
AcDbLine
 10
77.69492291980554
 20
116.7488491556325
 30
0.0
 11
81.09196126072493
 21
116.7488491556325
 31
0.0
  0
LINE
  5
584
330
52F
100
AcDbEntity
  8
IFS_FIBER_OPTICS
100
AcDbLine
 10
86.9978845788861
 20
116.7488491556325
 30
0.0
 11
90.39492291980556
 21
116.7488491556325
 31
0.0
  0
LINE
  5
585
330
52F
100
AcDbEntity
  8
IFS_FIBER_OPTICS
100
AcDbLine
 10
86.9978845788861
 20
112.7864491556325
 30
0.0
 11
90.3949229198055
 21
112.7864491556325
 31
0.0
  0
ARC
  5
586
330
52F
100
AcDbEntity
  8
IFS_FIBER_OPTICS
100
AcDbCircle
 10
90.3949229198055
 20
114.7676491556325
 30
0.0
 40
1.981199999999999
100
AcDbArc
 50
270.0
 51
90.0
  0
LINE
  5
587
330
52F
100
AcDbEntity
  8
0
100
AcDbLine
 10
112.8410245312964
 20
73.87151007522823
 30
0.0
 11
112.8410245312964
 21
93.97608985070496
 31
0.0
  0
ENDBLK
  5
531
330
52F
100
AcDbEntity
  8
0
100
AcDbBlockEnd
  0
BLOCK
  5
59F
330
59E
100
AcDbEntity
  8
0
100
AcDbBlockBegin
  2
4671F
 70
     0
 10
0.0
 20
0.0
 30
0.0
  3
4671F
  1

  0
LINE
  5
5A1
330
59E
100
AcDbEntity
  8
IFS_FIBER_OPTICS
100
AcDbLine
 10
234.0813059482924
 20
-10.04338423841864
 30
0.0
 11
234.0813059482924
 21
118.3536157615813
 31
0.0
  0
LINE
  5
5A2
330
59E
100
AcDbEntity
  8
IFS_FIBER_OPTICS
100
AcDbLine
 10
209.1893059482924
 20
118.3536157615813
 30
0.0
 11
209.1893059482924
 21
-10.04338423841864
 31
0.0
  0
INSERT
  5
5A3
330
59E
100
AcDbEntity
  8
IFS_FIBER_OPTICS
100
AcDbBlockReference
  2
R3_SCREW_HEAD
 10
209.1893059482924
 20
-10.04338423841864
 30
0.0
 41
25.4
 42
25.4
 43
25.4
  0
LINE
  5
5A4
330
59E
100
AcDbEntity
  8
IFS_FIBER_OPTICS
100
AcDbLine
 10
209.1893059482924
 20
-10.04338423841864
 30
0.0
 11
234.0813059482924
 21
-10.04338423841864
 31
0.0
  0
LINE
  5
5A5
330
59E
100
AcDbEntity
  8
IFS_FIBER_OPTICS
100
AcDbLine
 10
233.7003059482924
 20
-1.153384238418652
 30
0.0
 11
233.7003059482924
 21
14.08661576158136
 31
0.0
  0
LINE
  5
5A6
330
59E
100
AcDbEntity
  8
IFS_FIBER_OPTICS
100
AcDbLine
 10
209.5703059482924
 20
14.08661576158136
 30
0.0
 11
209.5703059482924
 21
-1.153384238418652
 31
0.0
  0
MTEXT
  5
5A7
330
59E
100
AcDbEntity
  8
IFS_FIBER_OPTICS
100
AcDbMText
 10
222.0520991477754
 20
5.44360904127442
 30
0.0
 40
2.54
 41
27.56892680051701
 71
     5
 72
     5
  1
{\fArial|b0|i0|c0|p34;LTC 4671}
1001
ACAD
1000
MTEXTBEGIN
1070
    73
1070
     1
1070
    44
1040
1.0
1070
    74
1070
     0
1000
MTEXTEND
  0
LINE
  5
5A8
330
59E
100
AcDbEntity
  8
IFS_FIBER_OPTICS
100
AcDbLine
 10
209.5703059482924
 20
-1.153384238418652
 30
0.0
 11
233.7003059482924
 21
-1.153384238418652
 31
0.0
  0
LINE
  5
5A9
330
59E
100
AcDbEntity
  8
IFS_FIBER_OPTICS
100
AcDbLine
 10
233.7003059482924
 20
14.08661576158136
 30
0.0
 11
209.5703059482924
 21
14.08661576158136
 31
0.0
  0
HATCH
  5
5AA
330
59E
100
AcDbEntity
  8
VORDERGRUND
 62
     7
100
AcDbHatch
 10
0.0
 20
0.0
 30
0.0
210
0.0
220
0.0
230
1.0
  2
SOLID
 70
     1
 71
     0
 91
        8
 92
        1
 93
        1
 72
     4
 94
        3
 73
     0
 74
     0
 95
       41
 96
       37
 40
0.0
 40
0.0
 40
0.0
 40
0.0
 40
1.0
 40
1.0
 40
1.0
 40
2.0
 40
2.0
 40
2.0
 40
3.0
 40
3.0
 40
3.0
 40
4.0
 40
4.0
 40
4.0
 40
5.0
 40
5.0
 40
5.0
 40
6.0
 40
6.0
 40
6.0
 40
7.0
 40
7.0
 40
7.0
 40
8.0
 40
8.0
 40
8.0
 40
9.0
 40
9.0
 40
9.0
 40
10.0
 40
10.0
 40
10.0
 40
11.0
 40
11.0
 40
11.0
 40
12.0
 40
12.0
 40
12.0
 40
12.0
 10
230.6108452350905
 20
35.88091293947261
 10
230.6108452350905
 20
35.88091293947261
 10
229.5566476589236
 20
35.88091293947261
 10
229.5566476589236
 20
35.88091293947261
 10
229.5566476589236
 20
35.88091293947261
 10
229.5566476589236
 20
37.45780112499188
 10
229.5566476589236
 20
37.45780112499188
 10
229.5566476589236
 20
37.45780112499188
 10
228.3444903448866
 20
37.45780112499188
 10
228.3444903448866
 20
37.45780112499188
 10
228.3444903448866
 20
37.45780112499188
 10
228.3444903448866
 20
35.88091293947261
 10
228.3444903448866
 20
35.88091293947261
 10
228.3444903448866
 20
35.88091293947261
 10
227.2961703403613
 20
35.88091293947261
 10
227.2961703403613
 20
35.88091293947261
 10
227.2961703403613
 20
35.88091293947261
 10
227.2961703403613
 20
39.87926880430171
 10
227.2961703403613
 20
39.87926880430171
 10
227.2961703403613
 20
39.87926880430171
 10
228.3444903448866
 20
39.87926880430171
 10
228.3444903448866
 20
39.87926880430171
 10
228.3444903448866
 20
39.87926880430171
 10
228.3444903448866
 20
38.40863609361687
 10
228.3444903448866
 20
38.40863609361687
 10
228.3444903448866
 20
38.40863609361687
 10
229.5566476589236
 20
38.40863609361687
 10
229.5566476589236
 20
38.40863609361687
 10
229.5566476589236
 20
38.40863609361687
 10
229.5566476589236
 20
39.87926880430171
 10
229.5566476589236
 20
39.87926880430171
 10
229.5566476589236
 20
39.87926880430171
 10
230.6108452350905
 20
39.87926880430171
 10
230.6108452350905
 20
39.87926880430171
 10
230.6108452350905
 20
39.87926880430171
 10
230.6108452350905
 20
35.88091293947261
 10
230.6108452350905
 20
35.88091293947261
 97
        0
 92
        1
 93
        1
 72
     4
 94
        3
 73
     0
 74
     0
 95
       35
 96
       31
 40
0.0
 40
0.0
 40
0.0
 40
0.0
 40
1.0
 40
1.0
 40
1.0
 40
2.0
 40
2.0
 40
2.0
 40
3.0
 40
3.0
 40
3.0
 40
4.0
 40
4.0
 40
4.0
 40
5.0
 40
5.0
 40
5.0
 40
6.0
 40
6.0
 40
6.0
 40
7.0
 40
7.0
 40
7.0
 40
8.0
 40
8.0
 40
8.0
 40
9.0
 40
9.0
 40
9.0
 40
10.0
 40
10.0
 40
10.0
 40
10.0
 10
226.962342638526
 20
36.65459422533531
 10
226.5524738535766
 20
36.06403603093329
 10
226.1717174156648
 20
35.78641260792141
 10
225.3812758669176
 20
35.78641260792141
 10
224.2567311051644
 20
35.78641260792141
 10
223.5305754962478
 20
36.71956894309294
 10
223.5305754962478
 20
37.90665474059569
 10
223.5305754962478
 20
39.03468931051116
 10
224.1864757566351
 20
39.9737691358529
 10
225.392939173144
 20
39.9737691358529
 10
226.0546251681161
 20
39.9737691358529
 10
226.52896356701
 20
39.71391618335132
 10
226.9331384544314
 20
39.10554159991034
 10
226.9331384544314
 20
39.10554159991034
 10
226.1248805166454
 20
38.56811114292555
 10
226.1248805166454
 20
38.56811114292555
 10
225.960951370077
 20
38.85165805610748
 10
225.7500934874323
 20
39.01696475852936
 10
225.3987249077288
 20
39.01696475852936
 10
224.9536825299864
 20
39.01696475852936
 10
224.526181030112
 20
38.61912662803397
 10
224.526181030112
 20
37.90665474059569
 10
224.526181030112
 20
37.10817744936964
 10
224.9887642857225
 20
36.74321698524495
 10
225.4280209288803
 20
36.74321698524495
 10
225.8086855297351
 20
36.74321698524495
 10
225.9843698195868
 20
36.93217172981883
 10
226.1482989661551
 20
37.20382574413202
 10
226.1482989661551
 20
37.20382574413202
 10
226.962342638526
 20
36.65459422533531
 10
226.962342638526
 20
36.65459422533531
 97
        0
 92
        1
 93
        1
 72
     4
 94
        3
 73
     0
 74
     0
 95
       53
 96
       49
 40
0.0
 40
0.0
 40
0.0
 40
0.0
 40
1.0
 40
1.0
 40
1.0
 40
2.0
 40
2.0
 40
2.0
 40
3.0
 40
3.0
 40
3.0
 40
4.0
 40
4.0
 40
4.0
 40
5.0
 40
5.0
 40
5.0
 40
6.0
 40
6.0
 40
6.0
 40
7.0
 40
7.0
 40
7.0
 40
8.0
 40
8.0
 40
8.0
 40
9.0
 40
9.0
 40
9.0
 40
10.0
 40
10.0
 40
10.0
 40
11.0
 40
11.0
 40
11.0
 40
12.0
 40
12.0
 40
12.0
 40
13.0
 40
13.0
 40
13.0
 40
14.0
 40
14.0
 40
14.0
 40
15.0
 40
15.0
 40
15.0
 40
16.0
 40
16.0
 40
16.0
 40
16.0
 10
223.2611255713002
 20
37.09169269765586
 10
223.2611255713002
 20
36.21161818137321
 10
222.4647146138543
 20
35.78641260792141
 10
221.7151405554281
 20
35.78641260792141
 10
220.8483364938675
 20
35.78641260792141
 10
220.4032941161251
 20
36.11716376835052
 10
220.0519255364217
 20
36.53644585163226
 10
220.0519255364217
 20
36.53644585163226
 10
220.6902849189409
 20
37.16254498705505
 10
220.6902849189409
 20
37.16254498705505
 10
220.9596430068316
 20
36.81994684628568
 10
221.3110575050635
 20
36.64867073516527
 10
221.7034772492016
 20
36.64867073516527
 10
222.0255498077535
 20
36.64867073516527
 10
222.2421934249831
 20
36.80809986594543
 10
222.2421934249831
 20
37.04439661335184
 10
222.2421934249831
 20
37.2983719942117
 10
222.0507131613444
 20
37.37739778167496
 10
221.527701122293
 20
37.48737265731409
 10
221.527701122293
 20
37.48737265731409
 10
221.3871904252344
 20
37.51689827110766
 10
221.3871904252344
 20
37.51689827110766
 10
220.7570963778364
 20
37.64923547010213
 10
220.2392731324998
 20
38.00703264378858
 10
220.2392731324998
 20
38.72166270206401
 10
220.2392731324998
 20
39.50719096826713
 10
220.877632515019
 20
39.97969262602295
 10
221.7209262900128
 20
39.97969262602295
 10
222.4355104297598
 20
39.97969262602295
 10
222.8980936853704
 20
39.67258950774587
 10
223.1792069165444
 20
39.3536394091285
 10
223.1792069165444
 20
39.3536394091285
 10
222.5584802489503
 20
38.73938725404597
 10
222.5584802489503
 20
38.73938725404597
 10
222.3650714071167
 20
38.94611246913017
 10
222.0722948697162
 20
39.11146509008055
 10
221.7384671678809
 20
39.11146509008055
 10
221.510160244425
 20
39.11146509008055
 10
221.252511381289
 20
39.0051636967176
 10
221.252511381289
 20
38.73938725404597
 10
221.252511381289
 20
38.49725885352636
 10
221.5207215059685
 20
38.40941670860049
 10
221.8614369870714
 20
38.33773788568917
 10
221.8614369870714
 20
38.33773788568917
 10
222.0020395211869
 20
38.30821227189547
 10
222.0020395211869
 20
38.30821227189547
 10
222.5723476445424
 20
38.18850266822502
 10
223.2611255713002
 20
38.01291021543029
 10
223.2611255713002
 20
37.09169269765586
 97
        0
 92
        1
 93
        1
 72
     4
 94
        3
 73
     0
 74
     0
 95
       17
 96
       13
 40
0.0
 40
0.0
 40
0.0
 40
0.0
 40
1.0
 40
1.0
 40
1.0
 40
2.0
 40
2.0
 40
2.0
 40
3.0
 40
3.0
 40
3.0
 40
4.0
 40
4.0
 40
4.0
 40
4.0
 10
219.9289097987028
 20
37.88300669844367
 10
219.9289097987028
 20
36.70772196275269
 10
219.2553309048621
 20
35.78641260792141
 10
218.0900564083732
 20
35.78641260792141
 10
216.9304758094122
 20
35.78641260792141
 10
216.2511570995151
 20
36.70772196275269
 10
216.2511570995151
 20
37.88300669844367
 10
216.2511570995151
 20
39.05241386249312
 10
216.9304758094122
 20
39.97969262602295
 10
218.0900104898448
 20
39.97969262602295
 10
219.2553309048621
 20
39.97969262602295
 10
219.9289097987028
 20
39.05241386249312
 10
219.9289097987028
 20
37.88300669844367
 97
        0
 92
        1
 93
        1
 72
     4
 94
        3
 73
     0
 74
     0
 95
       26
 96
       22
 40
0.0
 40
0.0
 40
0.0
 40
0.0
 40
1.0
 40
1.0
 40
1.0
 40
2.0
 40
2.0
 40
2.0
 40
3.0
 40
3.0
 40
3.0
 40
4.0
 40
4.0
 40
4.0
 40
5.0
 40
5.0
 40
5.0
 40
6.0
 40
6.0
 40
6.0
 40
7.0
 40
7.0
 40
7.0
 40
7.0
 10
215.9876765832662
 20
36.99719236610468
 10
215.9876765832662
 20
36.3238430649062
 10
215.3669039971436
 20
35.88091293947261
 10
214.7402079208508
 20
35.88091293947261
 10
214.7402079208508
 20
35.88091293947261
 10
212.6964201380466
 20
35.88091293947261
 10
212.6964201380466
 20
35.88091293947261
 10
212.6964201380466
 20
35.88091293947261
 10
212.6964201380466
 20
39.87926880430171
 10
212.6964201380466
 20
39.87926880430171
 10
212.6964201380466
 20
39.87926880430171
 10
214.5704012026408
 20
39.87926880430171
 10
214.5704012026408
 20
39.87926880430171
 10
215.2907251584441
 20
39.87926880430171
 10
215.8119922934145
 20
39.51899203007889
 10
215.8119922934145
 20
38.7807598481798
 10
215.8119922934145
 20
38.1487831411153
 10
215.261475055821
 20
37.95982839654141
 10
215.261475055821
 20
37.95982839654141
 10
215.261475055821
 20
37.95385898784286
 10
215.9876765832662
 20
37.78850636689247
 10
215.9876765832662
 20
36.99719236610468
 97
        0
 92
       16
 93
        1
 72
     4
 94
        3
 73
     0
 74
     0
 95
       17
 96
       13
 40
0.0
 40
0.0
 40
0.0
 40
0.0
 40
1.0
 40
1.0
 40
1.0
 40
2.0
 40
2.0
 40
2.0
 40
3.0
 40
3.0
 40
3.0
 40
4.0
 40
4.0
 40
4.0
 40
4.0
 10
218.9450134895934
 20
37.88300669844367
 10
218.9450134895934
 20
38.50905991533812
 10
218.6581145238346
 20
39.01696475852936
 10
218.0900564083732
 20
39.01696475852936
 10
217.5220442114403
 20
39.01696475852936
 10
217.2408850617378
 20
38.50905991533812
 10
217.2408850617378
 20
37.88300669844367
 10
217.2408850617378
 20
37.25112182843604
 10
217.5219982929118
 20
36.74321698524495
 10
218.0900564083732
 20
36.74321698524495
 10
218.6581145238346
 20
36.74321698524495
 10
218.9450134895934
 20
37.25112182843604
 10
218.9450134895934
 20
37.88300669844367
 97
        0
 92
       16
 93
        1
 72
     4
 94
        3
 73
     0
 74
     0
 95
       20
 96
       16
 40
0.0
 40
0.0
 40
0.0
 40
0.0
 40
1.0
 40
1.0
 40
1.0
 40
2.0
 40
2.0
 40
2.0
 40
3.0
 40
3.0
 40
3.0
 40
4.0
 40
4.0
 40
4.0
 40
5.0
 40
5.0
 40
5.0
 40
5.0
 10
214.792922391512
 20
38.66844312758994
 10
214.792922391512
 20
38.89298473171295
 10
214.6407024696986
 20
39.04653629085142
 10
214.4123496277141
 20
39.04653629085142
 10
214.4123496277141
 20
39.04653629085142
 10
213.6802705286275
 20
39.04653629085142
 10
213.6802705286275
 20
39.04653629085142
 10
213.6802705286275
 20
39.04653629085142
 10
213.6802705286275
 20
38.30233470025392
 10
213.6802705286275
 20
38.30233470025392
 10
213.6802705286275
 20
38.30233470025392
 10
214.3947628313176
 20
38.30233470025392
 10
214.3947628313176
 20
38.30233470025392
 10
214.6524116944534
 20
38.30233470025392
 10
214.792922391512
 20
38.4912894448278
 10
214.792922391512
 20
38.66844312758994
 97
        0
 92
       16
 93
        1
 72
     4
 94
        3
 73
     0
 74
     0
 95
       20
 96
       16
 40
0.0
 40
0.0
 40
0.0
 40
0.0
 40
1.0
 40
1.0
 40
1.0
 40
2.0
 40
2.0
 40
2.0
 40
3.0
 40
3.0
 40
3.0
 40
4.0
 40
4.0
 40
4.0
 40
5.0
 40
5.0
 40
5.0
 40
5.0
 10
214.9218157008727
 20
37.10937133110932
 10
214.9218157008727
 20
37.33974458834554
 10
214.7519630641341
 20
37.49912780059736
 10
214.3947628313176
 20
37.49912780059736
 10
214.3947628313176
 20
37.49912780059736
 10
213.6802705286275
 20
37.49912780059736
 10
213.6802705286275
 20
37.49912780059736
 10
213.6802705286275
 20
37.49912780059736
 10
213.6802705286275
 20
36.71364545292274
 10
213.6802705286275
 20
36.71364545292274
 10
213.6802705286275
 20
36.71364545292274
 10
214.4123496277141
 20
36.71364545292274
 10
214.4123496277141
 20
36.71364545292274
 10
214.7109578182279
 20
36.71364545292274
 10
214.9218157008727
 20
36.81994684628568
 10
214.9218157008727
 20
37.10937133110932
 97
        0
 75
     0
 76
     1
 98
        1
 10
212.6964201380466
 20
41.08192098294925
  0
LWPOLYLINE
  5
5AB
330
59E
100
AcDbEntity
  8
IFS_FIBER_OPTICS
100
AcDbPolyline
 90
        2
 70
     1
 43
1.778
 10
221.3051059482924
 20
78.03111576158136
 42
1.0
 10
223.0831059482923
 20
78.03111576158136
 42
1.0
  0
CIRCLE
  5
5AC
330
59E
100
AcDbEntity
  8
IFS_FIBER_OPTICS
100
AcDbCircle
 10
222.1941059482924
 20
63.29911576158139
 30
0.0
 40
1.27
  0
LINE
  5
5AD
330
59E
100
AcDbEntity
  8
IFS_FIBER_OPTICS
100
AcDbLine
 10
214.5917429827584
 20
63.19718119050054
 30
0.0
 11
214.5917429827584
 21
64.62429440067996
 31
0.0
  0
CIRCLE
  5
5AE
330
59E
100
AcDbEntity
  8
IFS_FIBER_OPTICS
100
AcDbCircle
 10
222.1941059482924
 20
63.29911576158139
 30
0.0
 40
3.556
  0
CIRCLE
  5
5AF
330
59E
100
AcDbEntity
  8
IFS_FIBER_OPTICS
100
AcDbCircle
 10
222.1941059482924
 20
63.29911576158139
 30
0.0
 40
4.953
  0
LWPOLYLINE
  5
5B0
330
59E
100
AcDbEntity
  8
IFS_FIBER_OPTICS
100
AcDbPolyline
 90
        2
 70
     1
 43
1.778
 10
221.3051059482924
 20
54.15511576158134
 42
1.0
 10
223.0831059482923
 20
54.15511576158134
 42
1.0
  0
LINE
  5
5B1
330
59E
100
AcDbEntity
  8
IFS_FIBER_OPTICS
100
AcDbLine
 10
218.4902931272281
 20
63.19718119050054
 30
0.0
 11
214.5917429827584
 21
63.19718119050054
 31
0.0
  0
MTEXT
  5
5B2
330
59E
100
AcDbEntity
  8
IFS_FIBER_OPTICS
100
AcDbMText
 10
229.1965483769368
 20
54.02030768916233
 30
0.0
 40
2.285999999999999
 41
10.35304
 71
     5
 72
     5
  1
{\fArial|b0|i0|c0|p34;PWR}
1001
ACAD
1000
MTEXTBEGIN
1070
    73
1070
     1
1070
    44
1040
1.0
1070
    74
1070
     0
1000
MTEXTEND
  0
LWPOLYLINE
  5
5B3
330
59E
100
AcDbEntity
  8
IFS_FIBER_OPTICS
100
AcDbPolyline
 90
        2
 70
     0
 43
1.016
 10
222.1941059482923
 20
59.7705104618265
 10
222.1941059482923
 20
59.2625104618265
  0
LWPOLYLINE
  5
5B4
330
59E
100
AcDbEntity
  8
IFS_FIBER_OPTICS
100
AcDbPolyline
 90
        2
 70
     1
 43
1.778
 10
221.3051059482924
 20
72.69711576158136
 42
1.0
 10
223.0831059482923
 20
72.69711576158136
 42
1.0
  0
MTEXT
  5
5B5
330
59E
100
AcDbEntity
  8
IFS_FIBER_OPTICS
100
AcDbMText
 10
219.6942276607484
 20
69.56940155272661
 30
0.0
 40
2.285999999999999
 41
0.0
 71
     6
 72
     5
  1
{\fArial|b0|i0|c0|p34;XTMR}
1001
ACAD
1000
MTEXTBEGIN
1070
    73
1070
     1
1070
    44
1040
1.0
1070
    74
1070
     0
1000
MTEXTEND
  0
LINE
  5
5B6
330
59E
100
AcDbEntity
  8
IFS_FIBER_OPTICS
100
AcDbLine
 10
220.0277497940923
 20
73.29675096568945
 30
0.0
 11
214.7015599373738
 21
73.29675096568945
 31
0.0
  0
LINE
  5
5B7
330
59E
100
AcDbEntity
  8
IFS_FIBER_OPTICS
100
AcDbLine
 10
214.7015599373738
 20
73.29675096568945
 30
0.0
 11
214.7015599373738
 21
71.43052647501562
 31
0.0
  0
LWPOLYLINE
  5
5B8
330
59E
100
AcDbEntity
  8
IFS_FIBER_OPTICS
100
AcDbPolyline
 90
        2
 70
     0
 43
1.016
 10
222.1941059482923
 20
67.32858522506347
 10
222.1941059482923
 20
66.82058522506349
  0
CIRCLE
  5
5B9
330
59E
100
AcDbEntity
  8
IFS_FIBER_OPTICS
100
AcDbCircle
 10
222.1941059482924
 20
88.06411576158135
 30
0.0
 40
3.556
  0
CIRCLE
  5
5BA
330
59E
100
AcDbEntity
  8
IFS_FIBER_OPTICS
100
AcDbCircle
 10
222.1941059482924
 20
88.06411576158135
 30
0.0
 40
4.953
  0
CIRCLE
  5
5BB
330
59E
100
AcDbEntity
  8
IFS_FIBER_OPTICS
100
AcDbCircle
 10
222.1941059482924
 20
88.06411576158135
 30
0.0
 40
1.27
  0
MTEXT
  5
5BC
330
59E
100
AcDbEntity
  8
IFS_FIBER_OPTICS
100
AcDbMText
 10
218.4370202731582
 20
83.31260343839758
 30
0.0
 40
2.285999999999999
 41
8.564879999999998
 71
     6
 72
     5
  1
{\fArial|b0|i0|c0|p34;REC}
1001
ACAD
1000
MTEXTBEGIN
1070
    73
1070
     1
1070
    44
1040
1.0
1070
    74
1070
     0
1000
MTEXTEND
  0
LINE
  5
5BD
330
59E
100
AcDbEntity
  8
IFS_FIBER_OPTICS
100
AcDbLine
 10
220.0277497940923
 20
78.02908783086377
 30
0.0
 11
214.7015599373738
 21
78.02908783086377
 31
0.0
  0
LINE
  5
5BE
330
59E
100
AcDbEntity
  8
IFS_FIBER_OPTICS
100
AcDbLine
 10
214.7015599373738
 20
78.02908783086377
 30
0.0
 11
214.7015599373738
 21
79.89531232153763
 31
0.0
  0
LINE
  5
5BF
330
59E
100
AcDbEntity
  8
IFS_FIBER_OPTICS
100
AcDbLine
 10
214.5917429827584
 20
88.12865760605271
 30
0.0
 11
214.5917429827584
 21
86.70154439587326
 31
0.0
  0
LINE
  5
5C0
330
59E
100
AcDbEntity
  8
IFS_FIBER_OPTICS
100
AcDbLine
 10
218.4902931272281
 20
88.12865760605271
 30
0.0
 11
214.5917429827584
 21
88.12865760605271
 31
0.0
  0
LWPOLYLINE
  5
5C1
330
59E
100
AcDbEntity
  8
IFS_FIBER_OPTICS
100
AcDbPolyline
 90
        2
 70
     0
 43
1.016
 10
222.1941059482923
 20
84.03464629809921
 10
222.1941059482923
 20
84.54264629809918
  0
MTEXT
  5
5C2
330
59E
100
AcDbEntity
  8
IFS_FIBER_OPTICS
100
AcDbMText
 10
221.7228814297967
 20
97.47061368381299
 30
0.0
 40
2.285999999999999
 41
25.4
 71
     5
 72
     5
  1
{\fArial|b0|i0|c0|p34;RS485\PTRANSCEIVER}
1001
ACAD
1000
MTEXTBEGIN
1070
    73
1070
     1
1070
    44
1040
1.0
1070
    74
1070
     0
1000
MTEXTEND
  0
LWPOLYLINE
  5
5C3
330
59E
100
AcDbEntity
  8
IFS_FIBER_OPTICS
100
AcDbPolyline
 90
        2
 70
     0
 43
1.016
 10
222.1941059482923
 20
91.59272106133618
 10
222.1941059482923
 20
92.10072106133617
  0
LINE
  5
5C4
330
59E
100
AcDbEntity
  8
IFS_FIBER_OPTICS
100
AcDbLine
 10
234.0813059482924
 20
118.3536157615813
 30
0.0
 11
209.1893059482924
 21
118.3536157615813
 31
0.0
  0
ENDBLK
  5
5A0
330
59E
100
AcDbEntity
  8
0
100
AcDbBlockEnd
  0
BLOCK
  5
5C7
330
5C6
100
AcDbEntity
  8
0
100
AcDbBlockBegin
  2
4671R
 70
     0
 10
0.0
 20
0.0
 30
0.0
  3
4671R
  1

  0
SOLID
  5
5C9
330
5C6
100
AcDbEntity
  8
IFS_FIBER_OPTICS
100
AcDbTrace
 10
309.3929490876511
 20
103.6724157615812
 30
0.0
 11
309.3929490876511
 21
4.612415761581296
 31
0.0
 12
310.9677490876512
 22
103.6724157615812
 32
0.0
 13
310.9677490876512
 23
4.612415761581296
 33
0.0
  0
SOLID
  5
5CA
330
5C6
100
AcDbEntity
  8
IFS_FIBER_OPTICS
100
AcDbTrace
 10
302.8397490876511
 20
103.6724157615812
 30
0.0
 11
302.8397490876511
 21
4.612415761581296
 31
0.0
 12
304.6177490876512
 22
103.6724157615812
 32
0.0
 13
304.6177490876512
 23
4.612415761581296
 33
0.0
  0
SOLID
  5
5CB
330
5C6
100
AcDbEntity
  8
IFS_FIBER_OPTICS
100
AcDbTrace
 10
302.8397490876511
 20
103.6724157615812
 30
0.0
 11
302.8397490876511
 21
4.612415761581296
 31
0.0
 12
304.6177490876512
 22
103.6724157615812
 32
0.0
 13
304.6177490876512
 23
4.612415761581296
 33
0.0
  0
LINE
  5
5CC
330
5C6
100
AcDbEntity
  8
IFS_FIBER_OPTICS
100
AcDbLine
 10
302.8397490876511
 20
4.612415761581296
 30
0.0
 11
302.8397490876511
 21
103.6724157615812
 31
0.0
  0
LINE
  5
5CD
330
5C6
100
AcDbEntity
  8
IFS_FIBER_OPTICS
100
AcDbLine
 10
304.6177490876512
 20
4.612415761581296
 30
0.0
 11
304.6177490876512
 21
103.6724157615812
 31
0.0
  0
LINE
  5
5CE
330
5C6
100
AcDbEntity
  8
IFS_FIBER_OPTICS
100
AcDbLine
 10
309.3929490876511
 20
103.6724157615812
 30
0.0
 11
309.3929490876511
 21
4.612415761581296
 31
0.0
  0
LINE
  5
5CF
330
5C6
100
AcDbEntity
  8
IFS_FIBER_OPTICS
100
AcDbLine
 10
310.9677490876512
 20
-10.04338423841866
 30
0.0
 11
310.9677490876512
 21
118.3536157615813
 31
0.0
  0
LINE
  5
5D0
330
5C6
100
AcDbEntity
  8
IFS_FIBER_OPTICS
100
AcDbLine
 10
286.0757490876511
 20
-10.04338423841866
 30
0.0
 11
286.0757490876511
 21
118.3536157615813
 31
0.0
  0
INSERT
  5
5D1
330
5C6
100
AcDbEntity
  8
IFS_FIBER_OPTICS
100
AcDbBlockReference
  2
R3_1_INCH_REAR_SCREW
 10
286.0757490876511
 20
-10.04338423841866
 30
0.0
 41
25.4
 42
25.4
 43
25.4
  0
LINE
  5
5D2
330
5C6
100
AcDbEntity
  8
IFS_FIBER_OPTICS
100
AcDbLine
 10
286.0757490876511
 20
-10.04338423841866
 30
0.0
 11
310.9677490876512
 21
-10.04338423841866
 31
0.0
  0
INSERT
  5
5D3
330
5C6
100
AcDbEntity
  8
IFS_FIBER_OPTICS
100
AcDbBlockReference
  2
CONNR3MOLEX
 10
296.9977490876511
 20
15.15341576158132
 30
0.0
 41
25.4
 42
25.4
 43
25.4
  0
LINE
  5
5D4
330
5C6
100
AcDbEntity
  8
IFS_FIBER_OPTICS
100
AcDbLine
 10
304.7015780764976
 20
11.7752157615813
 30
0.0
 11
309.3292019929958
 21
11.7752157615813
 31
0.0
  0
LINE
  5
5D5
330
5C6
100
AcDbEntity
  8
IFS_FIBER_OPTICS
100
AcDbLine
 10
304.7015780764976
 20
7.711215761581293
 30
0.0
 11
309.3292019929958
 21
7.711215761581293
 31
0.0
  0
SOLID
  5
5D6
330
5C6
100
AcDbEntity
  8
IFS_FIBER_OPTICS
100
AcDbTrace
 10
304.7015780764976
 20
11.7752157615813
 30
0.0
 11
304.7015780764976
 21
7.711215761581293
 31
0.0
 12
309.3292019929958
 22
11.7752157615813
 32
0.0
 13
309.3292019929958
 23
7.711215761581293
 33
0.0
  0
LINE
  5
5D7
330
5C6
100
AcDbEntity
  8
IFS_FIBER_OPTICS
100
AcDbLine
 10
304.7015780764976
 20
11.7752157615813
 30
0.0
 11
304.7015780764976
 21
7.711215761581293
 31
0.0
  0
LINE
  5
5D8
330
5C6
100
AcDbEntity
  8
IFS_FIBER_OPTICS
100
AcDbLine
 10
309.3292019929958
 20
7.711215761581293
 30
0.0
 11
309.3292019929958
 21
11.7752157615813
 31
0.0
  0
INSERT
  5
5D9
330
5C6
100
AcDbEntity
  8
IFS_FIBER_OPTICS
100
AcDbBlockReference
  2
CONN3PP_FRONT
 10
287.5673814410026
 20
74.66419225469053
 30
0.0
 41
25.4
 42
25.4
 43
25.4
  0
SOLID
  5
5DA
330
5C6
100
AcDbEntity
  8
IFS_FIBER_OPTICS
100
AcDbTrace
 10
304.7015780764976
 20
100.3704157615812
 30
0.0
 11
304.7015780764976
 21
96.30641576158126
 31
0.0
 12
309.3292019929958
 22
100.3704157615812
 32
0.0
 13
309.3292019929958
 23
96.30641576158126
 33
0.0
  0
LINE
  5
5DB
330
5C6
100
AcDbEntity
  8
IFS_FIBER_OPTICS
100
AcDbLine
 10
304.7015780764976
 20
100.3704157615812
 30
0.0
 11
304.7015780764976
 21
96.30641576158126
 31
0.0
  0
LINE
  5
5DC
330
5C6
100
AcDbEntity
  8
IFS_FIBER_OPTICS
100
AcDbLine
 10
309.3292019929958
 20
96.30641576158126
 30
0.0
 11
309.3292019929958
 21
100.3704157615812
 31
0.0
  0
LINE
  5
5DD
330
5C6
100
AcDbEntity
  8
IFS_FIBER_OPTICS
100
AcDbLine
 10
309.3929490876511
 20
95.21844828722274
 30
0.0
 11
309.3929490876511
 21
103.6724157615812
 31
0.0
  0
LINE
  5
5DE
330
5C6
100
AcDbEntity
  8
IFS_FIBER_OPTICS
100
AcDbLine
 10
304.6177490876512
 20
103.6724157615812
 30
0.0
 11
304.6177490876512
 21
95.21844828722274
 31
0.0
  0
LINE
  5
5DF
330
5C6
100
AcDbEntity
  8
IFS_FIBER_OPTICS
100
AcDbLine
 10
304.7015780764976
 20
96.30641576158126
 30
0.0
 11
309.3292019929958
 21
96.30641576158126
 31
0.0
  0
LINE
  5
5E0
330
5C6
100
AcDbEntity
  8
IFS_FIBER_OPTICS
100
AcDbLine
 10
304.7015780764976
 20
100.3704157615812
 30
0.0
 11
309.3292019929958
 21
100.3704157615812
 31
0.0
  0
LINE
  5
5E1
330
5C6
100
AcDbEntity
  8
IFS_FIBER_OPTICS
100
AcDbLine
 10
310.9677490876512
 20
118.3536157615813
 30
0.0
 11
286.0757490876511
 21
118.3536157615813
 31
0.0
  0
ENDBLK
  5
5C8
330
5C6
100
AcDbEntity
  8
0
100
AcDbBlockEnd
  0
ENDSEC
  0
SECTION
  2
ENTITIES
  0
MTEXT
  5
3DE
330
1F
100
AcDbEntity
  8
0
100
AcDbMText
 10
-49.66015566127186
 20
-26.59397913900516
 30
0.0
 40
5.08
 41
129.2936199999999
 71
     1
 72
     5
  1
LTC 4671 TRANSCEIVER\P  STAND ALONE UNIT
1001
ACAD
1000
MTEXTBEGIN
1070
    73
1070
     1
1070
    44
1040
1.0
1070
    74
1070
     0
1000
MTEXTEND
  0
MTEXT
  5
434
330
1F
100
AcDbEntity
  8
0
100
AcDbMText
 10
208.027330187994
 20
-27.04407426468733
 30
0.0
 40
5.08
 41
110.82274
 71
     1
 72
     5
  1
LTC 4671 TRANSCEIVER\P   RACK MODULES
1001
ACAD
1000
MTEXTBEGIN
1070
    73
1070
     1
1070
    44
1040
1.0
1070
    74
1070
     0
1000
MTEXTEND
  0
MTEXT
  5
436
330
1F
100
AcDbEntity
  8
0
100
AcDbMText
 10
214.7848707823537
 20
-13.09113623338623
 30
0.0
 40
2.54
 41
16.66859601444776
 71
     1
 72
     5
  1
Front
1001
ACAD
1000
MTEXTBEGIN
1070
    73
1070
     1
1070
    44
1040
1.0
1070
    74
1070
     0
1000
MTEXTEND
  0
MTEXT
  5
43D
330
1F
100
AcDbEntity
  8
0
100
AcDbMText
 10
293.6228256636435
 20
-12.19094658562447
 30
0.0
 40
2.54
 41
11.26256466213424
 71
     1
 72
     5
  1
Rear
1001
ACAD
1000
MTEXTBEGIN
1070
    73
1070
     1
1070
    44
1040
1.0
1070
    74
1070
     0
1000
MTEXTEND
  0
DIMENSION
  5
4D7
330
1F
100
AcDbEntity
  8
0
100
AcDbDimension
  2
*D17
 10
103.6218229608517
 20
134.679377123847
 30
0.0
 11
14.34082296085171
 21
134.679377123847
 31
0.0
 70
    32
  3
STANDARD
100
AcDbAlignedDimension
 13
-74.94017703914829
 23
119.5630384006193
 33
0.0
 14
103.6218229608517
 24
119.5630384006193
 34
0.0
100
AcDbRotatedDimension
  0
DIMENSION
  5
50B
330
1F
100
AcDbEntity
  8
0
100
AcDbDimension
  2
*D19
 10
123.5966564756895
 20
2.723038400619374
 30
0.0
 11
123.5966564756895
 21
54.7930384006194
 31
0.0
 70
    32
  3
STANDARD
100
AcDbAlignedDimension
 13
103.6218229608517
 23
106.8630384006193
 33
0.0
 14
103.4335258069169
 24
2.72303840061938
 34
0.0
 50
90.0
100
AcDbRotatedDimension
  0
INSERT
  5
59C
330
1F
100
AcDbEntity
  8
0
100
AcDbBlockReference
  2
4671T
 10
0.0
 20
0.0
 30
0.0
  0
INSERT
  5
5C5
330
1F
100
AcDbEntity
  8
0
100
AcDbBlockReference
  2
4671F
 10
0.0
 20
0.0
 30
0.0
  0
INSERT
  5
5E2
330
1F
100
AcDbEntity
  8
0
100
AcDbBlockReference
  2
4671R
 10
0.0
 20
0.0
 30
0.0
  0
ENDSEC
  0
SECTION
  2
OBJECTS
  0
DICTIONARY
  5
C
330
0
100
AcDbDictionary
  3
ACAD_GROUP
350
D
  3
ACAD_LAYOUT
350
1A
  3
ACAD_MLINESTYLE
350
17
  3
ACAD_PLOTSETTINGS
350
19
  3
ACAD_PLOTSTYLENAME
350
E
  3
ACDBHEADERROUNDTRIPXREC
350
63E
  3
ACDBVARIABLEDICTIONARY
350
1F1
  0
DICTIONARY
  5
1A3
330
1F
100
AcDbDictionary
280
     1
  3
ACAD_LAYOUTSELFREF
360
65F
  0
DICTIONARY
  5
1A5
330
1B
100
AcDbDictionary
280
     1
  3
ACAD_LAYOUTSELFREF
360
65E
  0
DICTIONARY
  5
2D7
330
2D6
100
AcDbDictionary
280
     1
  3
ACAD_DIMASSOC
360
2D8
  0
DICTIONARY
  5
30A
330
309
100
AcDbDictionary
280
     1
  3
ACAD_DIMASSOC
360
30B
  0
DICTIONARY
  5
30D
330
30C
100
AcDbDictionary
280
     1
  3
ACAD_DIMASSOC
360
30E
  0
DICTIONARY
  5
D
102
{ACAD_REACTORS
330
C
102
}
330
C
100
AcDbDictionary
  0
DICTIONARY
  5
1A
102
{ACAD_REACTORS
330
C
102
}
330
C
100
AcDbDictionary
  0
DICTIONARY
  5
17
102
{ACAD_REACTORS
330
C
102
}
330
C
100
AcDbDictionary
  3
STANDARD
350
18
  0
DICTIONARY
  5
19
102
{ACAD_REACTORS
330
C
102
}
330
C
100
AcDbDictionary
  0
ACDBDICTIONARYWDFLT
  5
E
102
{ACAD_REACTORS
330
C
102
}
330
C
100
AcDbDictionary
281
     1
  3
Normal
350
F
100
AcDbDictionaryWithDefault
340
F
  0
DICTIONARY
  5
63E
102
{ACAD_REACTORS
330
C
102
}
330
C
100
AcDbDictionary
  3
CEPSNTYPE
350
648
  3
FINGERPRINTGUID
350
649
  3
HYPERLINKBASE
350
641
  3
INSUNITS
350
647
  3
LAYOUTDICT
350
643
  3
LWETCUNION
350
646
  3
PLOTSETDICT
350
644
  3
PLOTSTYLNAMDICT
350
645
  3
PSVPSCALE
350
64B
  3
PUCSBASE
350
64E
  3
PUCSORGBACK
350
654
  3
PUCSORGBOTTOM
350
650
  3
PUCSORGFRONT
350
653
  3
PUCSORGLEFT
350
651
  3
PUCSORGRIGHT
350
652
  3
PUCSORGTOP
350
64F
  3
PUCSORTHOREF
350
64C
  3
PUCSORTHOVIEW
350
64D
  3
STYLESHEET
350
642
  3
TSTACKALIGN
350
63F
  3
TSTACKSIZE
350
640
  3
UCSBASE
350
657
  3
UCSORGBACK
350
65D
  3
UCSORGBOTTOM
350
659
  3
UCSORGFRONT
350
65C
  3
UCSORGLEFT
350
65A
  3
UCSORGRIGHT
350
65B
  3
UCSORGTOP
350
658
  3
UCSORTHOREF
350
655
  3
UCSORTHOVIEW
350
656
  3
VERSIONGUID
350
64A
  0
DICTIONARY
  5
1F1
102
{ACAD_REACTORS
330
C
102
}
330
C
100
AcDbDictionary
  3
DIMASSOC
350
1F3
  3
HIDETEXT
350
1F2
  0
XRECORD
  5
65F
102
{ACAD_REACTORS
330
1A3
102
}
330
1A3
100
AcDbXrecord
340
1F
  0
XRECORD
  5
65E
102
{ACAD_REACTORS
330
1A5
102
}
330
1A5
100
AcDbXrecord
340
1B
  0
DIMASSOC
  5
2D8
102
{ACAD_REACTORS
330
2D7
102
}
330
2D7
100
AcDbDimAssoc
330
2D6
 90
        3
 70
     0
 71
     0
  1
AcDbOsnapPointRef
 72
     1
331
2E8
 73
     2
 91
        0
 40
1.0
 10
9.057749217713185
 20
7.169471574295552
 30
0.0
 75
     0
  1
AcDbOsnapPointRef
 72
    13
331
2E8
 73
     2
 91
        0
 40
0.0
 10
9.057749217713185
 20
2.069471574295551
 30
0.0
 75
     0
  0
DIMASSOC
  5
30B
102
{ACAD_REACTORS
330
30A
102
}
330
30A
100
AcDbDimAssoc
330
309
 90
        3
 70
     0
 71
     0
  1
AcDbOsnapPointRef
 72
     3
331
319
 73
     2
 91
        0
 40
3.732533852875302
 10
2.787005121609004
 20
6.980676722130715
 30
0.0
 75
     0
  1
AcDbOsnapPointRef
 72
     3
331
32E
 73
     2
 91
        0
 40
3.732533852875302
 10
8.287005121609004
 20
6.980676722130715
 30
0.0
 75
     0
  0
DIMASSOC
  5
30E
102
{ACAD_REACTORS
330
30D
102
}
330
30D
100
AcDbDimAssoc
330
30C
 90
        3
 70
     0
 71
     0
  1
AcDbOsnapPointRef
 72
    13
331
2E9
 73
     2
 91
        0
 40
0.0
 10
2.027749217713185
 20
7.169471574295552
 30
0.0
 75
     0
  1
AcDbOsnapPointRef
 72
     1
331
2E8
 73
     2
 91
        0
 40
1.0
 10
9.057749217713185
 20
7.169471574295552
 30
0.0
 75
     0
  0
MLINESTYLE
  5
18
102
{ACAD_REACTORS
330
17
102
}
330
17
100
AcDbMlineStyle
  2
STANDARD
 70
     0
  3

 62
   256
 51
90.0
 52
90.0
 71
     2
 49
0.5
 62
   256
  6
BYLAYER
 49
-0.5
 62
   256
  6
BYLAYER
  0
ACDBPLACEHOLDER
  5
F
102
{ACAD_REACTORS
330
E
102
}
330
E
100
AcDbPlaceHolder
280
     0
  0
XRECORD
  5
648
102
{ACAD_REACTORS
330
63E
102
}
330
63E
100
AcDbXrecord
 90
        0
  0
XRECORD
  5
649
102
{ACAD_REACTORS
330
63E
102
}
330
63E
100
AcDbXrecord
  1
{C0F2207D-FEDB-4E18-B3C3-3BD7DD92D03E}
  0
XRECORD
  5
641
102
{ACAD_REACTORS
330
63E
102
}
330
63E
100
AcDbXrecord
  1

  0
XRECORD
  5
647
102
{ACAD_REACTORS
330
63E
102
}
330
63E
100
AcDbXrecord
 90
        4
  0
XRECORD
  5
643
102
{ACAD_REACTORS
330
63E
102
}
330
63E
100
AcDbXrecord
340
1A
  0
XRECORD
  5
646
102
{ACAD_REACTORS
330
63E
102
}
330
63E
100
AcDbXrecord
 90
    10781
  0
XRECORD
  5
644
102
{ACAD_REACTORS
330
63E
102
}
330
63E
100
AcDbXrecord
340
19
  0
XRECORD
  5
645
102
{ACAD_REACTORS
330
63E
102
}
330
63E
100
AcDbXrecord
340
E
  0
XRECORD
  5
64B
102
{ACAD_REACTORS
330
63E
102
}
330
63E
100
AcDbXrecord
 40
0.0
  0
XRECORD
  5
64E
102
{ACAD_REACTORS
330
63E
102
}
330
63E
100
AcDbXrecord
340
0
  0
XRECORD
  5
654
102
{ACAD_REACTORS
330
63E
102
}
330
63E
100
AcDbXrecord
 10
0.0
 20
0.0
 30
0.0
  0
XRECORD
  5
650
102
{ACAD_REACTORS
330
63E
102
}
330
63E
100
AcDbXrecord
 10
0.0
 20
0.0
 30
0.0
  0
XRECORD
  5
653
102
{ACAD_REACTORS
330
63E
102
}
330
63E
100
AcDbXrecord
 10
0.0
 20
0.0
 30
0.0
  0
XRECORD
  5
651
102
{ACAD_REACTORS
330
63E
102
}
330
63E
100
AcDbXrecord
 10
0.0
 20
0.0
 30
0.0
  0
XRECORD
  5
652
102
{ACAD_REACTORS
330
63E
102
}
330
63E
100
AcDbXrecord
 10
0.0
 20
0.0
 30
0.0
  0
XRECORD
  5
64F
102
{ACAD_REACTORS
330
63E
102
}
330
63E
100
AcDbXrecord
 10
0.0
 20
0.0
 30
0.0
  0
XRECORD
  5
64C
102
{ACAD_REACTORS
330
63E
102
}
330
63E
100
AcDbXrecord
340
0
  0
XRECORD
  5
64D
102
{ACAD_REACTORS
330
63E
102
}
330
63E
100
AcDbXrecord
 70
     0
  0
XRECORD
  5
642
102
{ACAD_REACTORS
330
63E
102
}
330
63E
100
AcDbXrecord
  1

  0
XRECORD
  5
63F
102
{ACAD_REACTORS
330
63E
102
}
330
63E
100
AcDbXrecord
 90
        1
  0
XRECORD
  5
640
102
{ACAD_REACTORS
330
63E
102
}
330
63E
100
AcDbXrecord
 90
       70
  0
XRECORD
  5
657
102
{ACAD_REACTORS
330
63E
102
}
330
63E
100
AcDbXrecord
340
0
  0
XRECORD
  5
65D
102
{ACAD_REACTORS
330
63E
102
}
330
63E
100
AcDbXrecord
 10
0.0
 20
0.0
 30
0.0
  0
XRECORD
  5
659
102
{ACAD_REACTORS
330
63E
102
}
330
63E
100
AcDbXrecord
 10
0.0
 20
0.0
 30
0.0
  0
XRECORD
  5
65C
102
{ACAD_REACTORS
330
63E
102
}
330
63E
100
AcDbXrecord
 10
0.0
 20
0.0
 30
0.0
  0
XRECORD
  5
65A
102
{ACAD_REACTORS
330
63E
102
}
330
63E
100
AcDbXrecord
 10
0.0
 20
0.0
 30
0.0
  0
XRECORD
  5
65B
102
{ACAD_REACTORS
330
63E
102
}
330
63E
100
AcDbXrecord
 10
0.0
 20
0.0
 30
0.0
  0
XRECORD
  5
658
102
{ACAD_REACTORS
330
63E
102
}
330
63E
100
AcDbXrecord
 10
0.0
 20
0.0
 30
0.0
  0
XRECORD
  5
655
102
{ACAD_REACTORS
330
63E
102
}
330
63E
100
AcDbXrecord
340
0
  0
XRECORD
  5
656
102
{ACAD_REACTORS
330
63E
102
}
330
63E
100
AcDbXrecord
 70
     0
  0
XRECORD
  5
64A
102
{ACAD_REACTORS
330
63E
102
}
330
63E
100
AcDbXrecord
  1
{8389BD44-8295-4D95-8BDC-82DC2A90A0FE}
  0
DICTIONARYVAR
  5
1F3
102
{ACAD_REACTORS
330
1F1
102
}
330
1F1
100
DictionaryVariables
280
     0
  1
2
  0
DICTIONARYVAR
  5
1F2
102
{ACAD_REACTORS
330
1F1
102
}
330
1F1
100
DictionaryVariables
280
     0
  1
1
  0
ENDSEC
  0
EOF
