  0
SECTION
  2
HEADER
  9
$ACADVER
  1
AC1014
  9
$ACADMAINTVER
 70
     9
  9
$DWGCODEPAGE
  3
ANSI_1252
  9
$INSBASE
 10
0.0
 20
0.0
 30
0.0
  9
$EXTMIN
 10
290.5672878760709
 20
-52.36892178056582
 30
-0.0015258207003583
  9
$EXTMAX
 10
736.5105932777579
 20
126.4205816711997
 30
0.0000000349246037
  9
$LIMMIN
 10
0.0
 20
0.0
  9
$LIMMAX
 10
12.0
 20
9.0
  9
$ORTHOMODE
 70
     1
  9
$REGENMODE
 70
     1
  9
$FILLMODE
 70
     1
  9
$QTEXTMODE
 70
     0
  9
$MIRRTEXT
 70
     1
  9
$DRAGMODE
 70
     2
  9
$LTSCALE
 40
1.0
  9
$OSMODE
 70
   151
  9
$ATTMODE
 70
     1
  9
$TEXTSIZE
 40
0.2
  9
$TRACEWID
 40
0.05
  9
$TEXTSTYLE
  7
STANDARD
  9
$CLAYER
  8
0
  9
$CELTYPE
  6
BYLAYER
  9
$CECOLOR
 62
   256
  9
$CELTSCALE
 40
1.0
  9
$DELOBJ
 70
     1
  9
$DISPSILH
 70
     0
  9
$DIMSCALE
 40
15.0
  9
$DIMASZ
 40
0.18
  9
$DIMEXO
 40
0.0625
  9
$DIMDLI
 40
0.38
  9
$DIMRND
 40
0.0
  9
$DIMDLE
 40
0.0
  9
$DIMEXE
 40
0.18
  9
$DIMTP
 40
0.0
  9
$DIMTM
 40
0.0
  9
$DIMTXT
 40
0.1
  9
$DIMCEN
 40
0.09
  9
$DIMTSZ
 40
0.0
  9
$DIMTOL
 70
     0
  9
$DIMLIM
 70
     0
  9
$DIMTIH
 70
     1
  9
$DIMTOH
 70
     1
  9
$DIMSE1
 70
     0
  9
$DIMSE2
 70
     0
  9
$DIMTAD
 70
     0
  9
$DIMZIN
 70
     0
  9
$DIMBLK
  1

  9
$DIMASO
 70
     1
  9
$DIMSHO
 70
     1
  9
$DIMPOST
  1

  9
$DIMAPOST
  1

  9
$DIMALT
 70
     1
  9
$DIMALTD
 70
     2
  9
$DIMALTF
 40
0.0394
  9
$DIMLFAC
 40
1.0
  9
$DIMTOFL
 70
     0
  9
$DIMTVP
 40
0.0
  9
$DIMTIX
 70
     0
  9
$DIMSOXD
 70
     0
  9
$DIMSAH
 70
     0
  9
$DIMBLK1
  1

  9
$DIMBLK2
  1

  9
$DIMSTYLE
  2
STANDARD
  9
$DIMCLRD
 70
     0
  9
$DIMCLRE
 70
     0
  9
$DIMCLRT
 70
     0
  9
$DIMTFAC
 40
1.0
  9
$DIMGAP
 40
0.09
  9
$DIMJUST
 70
     0
  9
$DIMSD1
 70
     0
  9
$DIMSD2
 70
     0
  9
$DIMTOLJ
 70
     1
  9
$DIMTZIN
 70
     0
  9
$DIMALTZ
 70
     0
  9
$DIMALTTZ
 70
     0
  9
$DIMFIT
 70
     3
  9
$DIMUPT
 70
     0
  9
$DIMUNIT
 70
     2
  9
$DIMDEC
 70
     1
  9
$DIMTDEC
 70
     1
  9
$DIMALTU
 70
     2
  9
$DIMALTTD
 70
     2
  9
$DIMTXSTY
  7
STANDARD
  9
$DIMAUNIT
 70
     0
  9
$LUNITS
 70
     2
  9
$LUPREC
 70
     1
  9
$SKETCHINC
 40
0.1
  9
$FILLETRAD
 40
0.5
  9
$AUNITS
 70
     0
  9
$AUPREC
 70
     0
  9
$MENU
  1
.
  9
$ELEVATION
 40
0.0
  9
$PELEVATION
 40
0.0
  9
$THICKNESS
 40
0.0
  9
$LIMCHECK
 70
     0
  9
$BLIPMODE
 70
     0
  9
$CHAMFERA
 40
0.5
  9
$CHAMFERB
 40
0.5
  9
$CHAMFERC
 40
1.0
  9
$CHAMFERD
 40
0.0
  9
$SKPOLY
 70
     0
  9
$TDCREATE
 40
2452853.452111354
  9
$TDUPDATE
 40
2452970.667384895
  9
$TDINDWG
 40
0.1498573148
  9
$TDUSRTIMER
 40
0.1498573148
  9
$USRTIMER
 70
     1
  9
$ANGBASE
 50
0.0
  9
$ANGDIR
 70
     0
  9
$PDMODE
 70
     0
  9
$PDSIZE
 40
0.0
  9
$PLINEWID
 40
0.0
  9
$COORDS
 70
     2
  9
$SPLFRAME
 70
     0
  9
$SPLINETYPE
 70
     6
  9
$SPLINESEGS
 70
     8
  9
$ATTDIA
 70
     0
  9
$ATTREQ
 70
     1
  9
$HANDLING
 70
 22529
  9
$HANDSEED
  5
DDE
  9
$SURFTAB1
 70
     6
  9
$SURFTAB2
 70
     6
  9
$SURFTYPE
 70
     6
  9
$SURFU
 70
     6
  9
$SURFV
 70
     6
  9
$UCSNAME
  2

  9
$UCSORG
 10
0.0
 20
0.0
 30
0.0
  9
$UCSXDIR
 10
1.0
 20
0.0
 30
0.0
  9
$UCSYDIR
 10
0.0
 20
1.0
 30
0.0
  9
$PUCSNAME
  2

  9
$PUCSORG
 10
0.0
 20
0.0
 30
0.0
  9
$PUCSXDIR
 10
1.0
 20
0.0
 30
0.0
  9
$PUCSYDIR
 10
0.0
 20
1.0
 30
0.0
  9
$USERI1
 70
     0
  9
$USERI2
 70
     0
  9
$USERI3
 70
     0
  9
$USERI4
 70
     0
  9
$USERI5
 70
     0
  9
$USERR1
 40
0.0
  9
$USERR2
 40
0.0
  9
$USERR3
 40
0.0
  9
$USERR4
 40
0.0
  9
$USERR5
 40
0.0
  9
$WORLDVIEW
 70
     1
  9
$SHADEDGE
 70
     3
  9
$SHADEDIF
 70
    70
  9
$TILEMODE
 70
     1
  9
$MAXACTVP
 70
    48
  9
$PINSBASE
 10
0.0
 20
0.0
 30
0.0
  9
$PLIMCHECK
 70
     0
  9
$PEXTMIN
 10
1.000000000000000E+20
 20
1.000000000000000E+20
 30
1.000000000000000E+20
  9
$PEXTMAX
 10
-1.000000000000000E+20
 20
-1.000000000000000E+20
 30
-1.000000000000000E+20
  9
$PLIMMIN
 10
0.0
 20
0.0
  9
$PLIMMAX
 10
12.0
 20
9.0
  9
$UNITMODE
 70
     0
  9
$VISRETAIN
 70
     1
  9
$PLINEGEN
 70
     0
  9
$PSLTSCALE
 70
     1
  9
$TREEDEPTH
 70
  3020
  9
$PICKSTYLE
 70
     1
  9
$CMLSTYLE
  2
STANDARD
  9
$CMLJUST
 70
     0
  9
$CMLSCALE
 40
1.0
  9
$PROXYGRAPHICS
 70
     1
  9
$MEASUREMENT
 70
     0
  0
ENDSEC
  0
SECTION
  2
CLASSES
  0
CLASS
  1
ACDBDICTIONARYWDFLT
  2
AcDbDictionaryWithDefault
  3
AutoCAD 2000
 90
        0
280
     0
281
     0
  0
CLASS
  1
ACDBPLACEHOLDER
  2
AcDbPlaceHolder
  3
AutoCAD 2000
 90
        0
280
     0
281
     0
  0
CLASS
  1
LAYOUT
  2
AcDbLayout
  3
AutoCAD 2000
 90
        0
280
     0
281
     0
  0
CLASS
  1
DIMASSOC
  2
AcDbDimAssoc
  3
"AcDbDimAssoc|Product Desc:     AcDim ARX App For Dimension|Company:          Autodesk, Inc.|WEB Address:      www.autodesk.com"
 90
        0
280
     0
281
     0
  0
CLASS
  1
DICTIONARYVAR
  2
AcDbDictionaryVar
  3
AutoCAD 2000
 90
        0
280
     0
281
     0
  0
CLASS
  1
LONG_TRANSACTION
  2
AcDbLongTransaction
  3
AutoCAD 2000
 90
        0
280
     0
281
     0
  0
CLASS
  1
LWPOLYLINE
  2
AcDbPolyline
  3
AutoCAD 2000
 90
        0
280
     0
281
     1
  0
CLASS
  1
HATCH
  2
AcDbHatch
  3
AutoCAD 2000
 90
        0
280
     0
281
     1
  0
CLASS
  1
XRECORD
  2
AcDbXrecord
  3
AutoCAD 2000
 90
        0
280
     0
281
     0
  0
CLASS
  1
LONG_TRANSACTION
  2
AcDbLongTransaction
  3
AutoCAD 2000
 90
        0
280
     0
281
     0
  0
CLASS
  1
LWPOLYLINE
  2
AcDbPolyline
  3
AutoCAD 2000
 90
        0
280
     0
281
     1
  0
CLASS
  1
HATCH
  2
AcDbHatch
  3
AutoCAD 2000
 90
        0
280
     0
281
     1
  0
CLASS
  1
XRECORD
  2
AcDbXrecord
  3
AutoCAD 2000
 90
        0
280
     0
281
     0
  0
CLASS
  1
LONG_TRANSACTION
  2
AcDbLongTransaction
  3
AutoCAD 2000
 90
        0
280
     0
281
     0
  0
CLASS
  1
LWPOLYLINE
  2
AcDbPolyline
  3
AutoCAD 2000
 90
        0
280
     0
281
     1
  0
CLASS
  1
HATCH
  2
AcDbHatch
  3
AutoCAD 2000
 90
        0
280
     0
281
     1
  0
CLASS
  1
XRECORD
  2
AcDbXrecord
  3
AutoCAD 2000
 90
        0
280
     0
281
     0
  0
ENDSEC
  0
SECTION
  2
TABLES
  0
TABLE
  2
VPORT
  5
8
330
0
100
AcDbSymbolTable
 70
     4
  0
VPORT
  5
DAE
330
8
100
AcDbSymbolTableRecord
100
AcDbViewportTableRecord
  2
*ACTIVE
 70
     0
 10
0.0
 20
0.0
 11
1.0
 21
1.0
 12
513.5389398498659
 22
37.02583006356769
 13
0.0
 23
0.0
 14
0.5
 24
0.5
 15
0.5
 25
0.5
 16
0.0
 26
0.0
 36
1.0
 17
0.0
 27
0.0
 37
0.0
 40
271.0154776998042
 41
1.970588235294117
 42
50.0
 43
0.0
 44
0.0
 50
0.0
 51
0.0
 71
     0
 72
   100
 73
     1
 74
     3
 75
     0
 76
     0
 77
     0
 78
     0
  0
ENDTAB
  0
TABLE
  2
LTYPE
  5
5
330
0
100
AcDbSymbolTable
 70
     1
  0
LTYPE
  5
14
330
5
100
AcDbSymbolTableRecord
100
AcDbLinetypeTableRecord
  2
BYBLOCK
 70
     0
  3

 72
    65
 73
     0
 40
0.0
  0
LTYPE
  5
15
330
5
100
AcDbSymbolTableRecord
100
AcDbLinetypeTableRecord
  2
BYLAYER
 70
     0
  3

 72
    65
 73
     0
 40
0.0
  0
LTYPE
  5
16
330
5
100
AcDbSymbolTableRecord
100
AcDbLinetypeTableRecord
  2
CONTINUOUS
 70
     0
  3
Solid line
 72
    65
 73
     0
 40
0.0
  0
ENDTAB
  0
TABLE
  2
LAYER
  5
2
330
0
100
AcDbSymbolTable
 70
     4
  0
LAYER
  5
10
330
2
100
AcDbSymbolTableRecord
100
AcDbLayerTableRecord
  2
0
 70
     0
 62
     7
  6
CONTINUOUS
  0
LAYER
  5
42
330
2
100
AcDbSymbolTableRecord
100
AcDbLayerTableRecord
  2
IFS_FIBER_OPTICS
 70
     0
 62
     7
  6
CONTINUOUS
  0
LAYER
  5
FA
330
2
100
AcDbSymbolTableRecord
100
AcDbLayerTableRecord
  2
DEFPOINTS
 70
     0
 62
     7
  6
CONTINUOUS
  0
LAYER
  5
B1E
330
2
100
AcDbSymbolTableRecord
100
AcDbLayerTableRecord
  2
VORDERGRUND
 70
     0
 62
   160
  6
CONTINUOUS
  0
ENDTAB
  0
TABLE
  2
STYLE
  5
3
330
0
100
AcDbSymbolTable
 70
     1
  0
STYLE
  5
11
330
3
100
AcDbSymbolTableRecord
100
AcDbTextStyleTableRecord
  2
STANDARD
 70
     0
 40
0.0
 41
1.0
 50
0.0
 71
     0
 42
0.2
  3
txt
  4

  0
ENDTAB
  0
TABLE
  2
VIEW
  5
6
330
0
100
AcDbSymbolTable
 70
     0
  0
ENDTAB
  0
TABLE
  2
UCS
  5
7
330
0
100
AcDbSymbolTable
 70
     0
  0
ENDTAB
  0
TABLE
  2
APPID
  5
9
330
0
100
AcDbSymbolTable
 70
     2
  0
APPID
  5
12
330
9
100
AcDbSymbolTableRecord
100
AcDbRegAppTableRecord
  2
ACAD
 70
     0
  0
APPID
  5
518
330
9
100
AcDbSymbolTableRecord
100
AcDbRegAppTableRecord
  2
CONTENTBLOCKICON
 70
     0
  0
ENDTAB
  0
TABLE
  2
DIMSTYLE
  5
A
330
0
100
AcDbSymbolTable
 70
     1
  0
DIMSTYLE
105
27
102
{ACAD_REACTORS
330
39F
330
39C
330
399
330
395
330
AC9
330
C25
330
C3F
330
CB4
330
CCE
330
CE8
102
}
330
A
100
AcDbSymbolTableRecord
100
AcDbDimStyleTableRecord
  2
STANDARD
 70
     0
  3

  4

  5

  6

  7

 40
15.0
 41
0.18
 42
0.0625
 43
0.38
 44
0.18
 45
0.0
 46
0.0
 47
0.0
 48
0.0
140
0.1
141
0.09
142
0.0
143
0.0394
144
1.0
145
0.0
146
1.0
147
0.09
 71
     0
 72
     0
 73
     1
 74
     1
 75
     0
 76
     0
 77
     0
 78
     0
170
     1
171
     2
172
     0
173
     0
174
     0
175
     0
176
     0
177
     0
178
     0
270
     2
271
     1
272
     1
273
     2
274
     2
340
11
275
     0
280
     0
281
     0
282
     0
283
     1
284
     0
285
     0
286
     0
287
     3
288
     0
  0
ENDTAB
  0
TABLE
  2
BLOCK_RECORD
  5
1
330
0
100
AcDbSymbolTable
 70
    55
  0
BLOCK_RECORD
  5
1F
102
{ACAD_XDICTIONARY
360
4C7
102
}
330
1
100
AcDbSymbolTableRecord
100
AcDbBlockTableRecord
  2
*MODEL_SPACE
  0
BLOCK_RECORD
  5
1B
102
{ACAD_XDICTIONARY
360
4C9
102
}
330
1
100
AcDbSymbolTableRecord
100
AcDbBlockTableRecord
  2
*PAPER_SPACE
  0
BLOCK_RECORD
  5
2B
330
1
100
AcDbSymbolTableRecord
100
AcDbBlockTableRecord
  2
CONN2PP
1001
ACAD
1000
DesignCenter Data
1002
{
1070
     1
1070
     1
1002
}
  0
BLOCK_RECORD
  5
39
330
1
100
AcDbSymbolTableRecord
100
AcDbBlockTableRecord
  2
ST_CONN
1001
ACAD
1000
DesignCenter Data
1002
{
1070
     1
1070
     1
1002
}
  0
BLOCK_RECORD
  5
15C
330
1
100
AcDbSymbolTableRecord
100
AcDbBlockTableRecord
  2
4641
1001
ACAD
1000
DesignCenter Data
1002
{
1070
     1
1070
     4
1002
}
1001
CONTENTBLOCKICON
1071
        0
1004
2800000020000000200000000100080000000000000400000000000000000000000000000000000000000000000080000080000000808000800000008000800080800000C0C0C000C0DCC000F0CAA6000020400000206000002080000020A0000020C0000020E00000400000004020000040400000406000004080000040A0
1004
000040C0000040E00000600000006020000060400000606000006080000060A0000060C0000060E00000800000008020000080400000806000008080000080A0000080C0000080E00000A0000000A0200000A0400000A0600000A0800000A0A00000A0C00000A0E00000C0000000C0200000C0400000C0600000C0800000C0
1004
A00000C0C00000C0E00000E0000000E0200000E0400000E0600000E0800000E0A00000E0C00000E0E00040000000400020004000400040006000400080004000A0004000C0004000E00040200000402020004020400040206000402080004020A0004020C0004020E000404000004040200040404000404060004040800040
1004
40A0004040C0004040E00040600000406020004060400040606000406080004060A0004060C0004060E00040800000408020004080400040806000408080004080A0004080C0004080E00040A0000040A0200040A0400040A0600040A0800040A0A00040A0C00040A0E00040C0000040C0200040C0400040C0600040C08000
1004
40C0A00040C0C00040C0E00040E0000040E0200040E0400040E0600040E0800040E0A00040E0C00040E0E00080000000800020008000400080006000800080008000A0008000C0008000E00080200000802020008020400080206000802080008020A0008020C0008020E00080400000804020008040400080406000804080
1004
008040A0008040C0008040E00080600000806020008060400080606000806080008060A0008060C0008060E00080800000808020008080400080806000808080008080A0008080C0008080E00080A0000080A0200080A0400080A0600080A0800080A0A00080A0C00080A0E00080C0000080C0200080C0400080C0600080C0
1004
800080C0A00080C0C00080C0E00080E0000080E0200080E0400080E0600080E0800080E0A00080E0C00080E0E000C0000000C0002000C0004000C0006000C0008000C000A000C000C000C000E000C0200000C0202000C0204000C0206000C0208000C020A000C020C000C020E000C0400000C0402000C0404000C0406000C0
1004
408000C040A000C040C000C040E000C0600000C0602000C0604000C0606000C0608000C060A000C060C000C060E000C0800000C0802000C0804000C0806000C0808000C080A000C080C000C080E000C0A00000C0A02000C0A04000C0A06000C0A08000C0A0A000C0A0C000C0A0E000C0C00000C0C02000C0C04000C0C06000
1004
C0C08000C0C0A000F0FBFF00A4A0A000808080000000FF0000FF000000FFFF00FF000000FF00FF00FFFF0000FFFFFF00FFFFFFFFFFFFFFFFFFFFFFFFFFFFFFFFFFFFFFFFFFFFFFFFFFFFFFFFFFFFFFFFFFFFFFFFFFFF00000000000000000000000000000000FFFFFFFFFFFFFFFFFFFFFFFFFFFFFFFF00FFFFFFFFFFFFFFFF
1004
FFFFFFFFFFFF00FFFFFFFFFFFFFFFFFFFFFFFFFFFFFFFF00FF0000FFFFFF000000FFFFFF000000FFFFFFFFFFFFFFFFFFFFFFFFFFFFFFFF00FF00FFFFFF0000FF00FFFFFF00FF00FFFFFFFFFFFFFFFFFFFFFFFFFFFFFFFF00FFFFFFFFFFFF00FF00FFFFFFFFFF00FFFFFFFFFFFFFFFFFFFFFFFFFFFFFFFF00FFFFFFFFFFFF00
1004
FF00FFFFFFFFFF00FFFFFFFFFFFFFFFFFFFFFFFFFFFFFFFF00000000000000000000000000000000FFFFFFFFFFFFFFFFFFFFFFFFFFFFFFFF00FF0000FFFFFFFFFFFFFFFFFF00FF00FFFFFFFFFFFFFFFFFFFFFFFFFFFFFFFF00FF000000FFFFFFFFFFFFFFFF000000FFFFFFFFFFFFFFFFFFFFFFFFFFFFFFFF00FF0000FFFFFF
1004
FFFFFFFFFFFF00FF00FFFFFFFFFFFFFFFFFFFFFFFFFFFFFFFF00FFFFFFFFA4A4A4A4A4A4FFFFFFFF0000000000FFFFFFFFFFFFFFFFFFFFFFFF00FFFFFFFFA4A4A4A4A4A40000000000FF000000FFFFFFFFFFFFFFFFFFFFFFFF00FFFFFFFFFFFFFF00FF000000000000FFFF0000FFFFFFFFFFFFFFFFFFFFFFFF00FFFFFFFFFF
1004
FF000000000000000000FF000000FFFFFFFFFFFFFFFFFFFFFFFF00FFFFFFFFFFFFFFFFFFFF0000FFFF00FF000000FFFFFFFFFFFFFFFFFFFFFFFF00FFFFFFFFFFFFFFFFFFFF0000FFFF00FF000000FFFFFFFFFFFFFFFFFFFFFFFF00FFFFFFFFFFFFFFFFFFFFFFFFFFFF0000000000FFFFFFFFFFFFFFFFFFFFFFFF00FFFFFFFF
1004
FFFFFFFFFFFFFFFFFFFF00FFFFFFFFFFFFFFFFFFFFFFFFFFFFFFFF00FF0000FFFF000000000000FF00FF00FFFFFFFFFFFFFFFFFFFFFFFFFFFFFFFF00FF00000000000000000000FF000000FFFFFFFFFFFFFFFFFFFFFFFFFFFFFFFF00FF0000FFFF000000000000FF00FF00FFFFFFFFFFFFFFFFFFFFFFFFFFFFFFFF00000000
1004
000000000000000000000000FFFFFFFFFFFFFFFFFFFFFFFFFFFFFFFFFFFFFF0000000000000000FFFFFFFFFFFFFFFFFFFFFFFFFFFFFFFFFFFFFFFFFFFFFFFFFF00000000000000FFFFFFFFFFFFFFFFFFFFFFFFFFFFFFFFFFFFFFFFFFFFFFFFFF00000000000000FFFFFFFFFFFFFFFFFFFFFFFFFFFFFFFFFFFFFFFFFFFFFFFF
1004
FF00000000000000FFFFFFFFFFFFFFFFFFFFFFFFFFFFFFFFFFFFFFFFFFFFFFFFFF00000000000000FFFFFFFFFFFFFFFFFFFFFFFFFFFFFFFFFFFFFFFFFFFFFFFFFFFF00FF000000FFFFFFFFFFFFFFFFFFFFFFFFFFFFFFFFFFFFFFFFFFFFFFFFFFFF000000000000FFFFFFFFFFFFFFFFFFFFFFFFFFFFFFFFFFFFFFFFFFFFFFFF
1004
FFFF000000000000FFFFFFFFFFFFFFFFFFFFFFFFFFFFFFFFFFFFFFFFFFFFFFFFFFFFFFFFFFFFFFFFFFFFFFFFFFFFFFFFFFFFFFFFFFFFFFFF
  0
BLOCK_RECORD
  5
1C5
330
1
100
AcDbSymbolTableRecord
100
AcDbBlockTableRecord
  2
LTC4641
1001
ACAD
1000
DesignCenter Data
1002
{
1070
     1
1070
     1
1002
}
1001
CONTENTBLOCKICON
1071
        0
1004
2800000020000000200000000100080000000000000400000000000000000000000000000000000000000000000080000080000000808000800000008000800080800000C0C0C000C0DCC000F0CAA6000020400000206000002080000020A0000020C0000020E00000400000004020000040400000406000004080000040A0
1004
000040C0000040E00000600000006020000060400000606000006080000060A0000060C0000060E00000800000008020000080400000806000008080000080A0000080C0000080E00000A0000000A0200000A0400000A0600000A0800000A0A00000A0C00000A0E00000C0000000C0200000C0400000C0600000C0800000C0
1004
A00000C0C00000C0E00000E0000000E0200000E0400000E0600000E0800000E0A00000E0C00000E0E00040000000400020004000400040006000400080004000A0004000C0004000E00040200000402020004020400040206000402080004020A0004020C0004020E000404000004040200040404000404060004040800040
1004
40A0004040C0004040E00040600000406020004060400040606000406080004060A0004060C0004060E00040800000408020004080400040806000408080004080A0004080C0004080E00040A0000040A0200040A0400040A0600040A0800040A0A00040A0C00040A0E00040C0000040C0200040C0400040C0600040C08000
1004
40C0A00040C0C00040C0E00040E0000040E0200040E0400040E0600040E0800040E0A00040E0C00040E0E00080000000800020008000400080006000800080008000A0008000C0008000E00080200000802020008020400080206000802080008020A0008020C0008020E00080400000804020008040400080406000804080
1004
008040A0008040C0008040E00080600000806020008060400080606000806080008060A0008060C0008060E00080800000808020008080400080806000808080008080A0008080C0008080E00080A0000080A0200080A0400080A0600080A0800080A0A00080A0C00080A0E00080C0000080C0200080C0400080C0600080C0
1004
800080C0A00080C0C00080C0E00080E0000080E0200080E0400080E0600080E0800080E0A00080E0C00080E0E000C0000000C0002000C0004000C0006000C0008000C000A000C000C000C000E000C0200000C0202000C0204000C0206000C0208000C020A000C020C000C020E000C0400000C0402000C0404000C0406000C0
1004
408000C040A000C040C000C040E000C0600000C0602000C0604000C0606000C0608000C060A000C060C000C060E000C0800000C0802000C0804000C0806000C0808000C080A000C080C000C080E000C0A00000C0A02000C0A04000C0A06000C0A08000C0A0A000C0A0C000C0A0E000C0C00000C0C02000C0C04000C0C06000
1004
C0C08000C0C0A000F0FBFF00A4A0A000808080000000FF0000FF000000FFFF00FF000000FF00FF00FFFF0000FFFFFF00FFFFFFFFFFFFFFFFFFFFFFFFFFFFFFFFFFFFFFFFFFFFFFFFFFFFFFFFFFFFFFFFFFFFFFFFFFFFFFFFFFFFFFFFFFFF00FFFFFFFFFFFFFFFFFFFFFF00FFFFFFFFFFFFFFFFFFFFFFFFFFFFFFFFFFFFFF00
1004
FF00FF00FF00000000FF0000FFFFFFFFFFFFFFFFFFFFFFFFFFFFFFFFFFFFFF00000000000000000000000000FFFFFFFFFFFFFFFFFFFFFFFFFFFFFFFFFFFF0000000000000000000000FF000000FFFFFFFFFFFFFFFFFFFFFFFFFFFFFFFFFFFF00000000000000000000FF0000FFFFFFFFFFFFFFFFFF00000000000000000000
1004
00000000000000000000000000FFFFFFFFFFFFFFFFFFFF0000FFFFFFFFFFFFFF00FF00FFFFFFFFFFFFFFFF0000FFFFFFFFFFFFFFFFFFFF00FFFFFFFFFFFFFFFF00FF00FFFFFFFFFFFFFFFF0000FFFFFFFFFFFFFFFFFFFF00FFFFFFFFFFFFFFFF00FF0000FF000000FFFFFF0000FFFFFFFFFFFFFFFFFFFF00FFFFFFFFFFFFFF
1004
FF00FFFFFFFF00FF00FFFFFFFF00FFFFFFFFFFFFFFFFFFFF00FFFFFFFFFFFFFFFF00FFFFFFFF00FF00FFFFFFFF00FFFFFFFFFFFFFFFFFFFF00FFFFFFFFFFFFFFFF00000000000000000000000000FFFFFFFFFFFFFFFFFFFF00FFFFFFFFFFFFFFFF00FF00FFFFFFFFFFFFFFFF0000FFFFFFFFFFFFFF00000000000000FFFFFF
1004
FFFF00000000FFFFFFFFFFFF000000FFFFFFFFFFFFFF00000000000000FFFFFFFFFF00FFFFFFFFFFFFFFFFFFFFFF00000000FFFFFFFFFFFFFF00FFFFFFFFFFFFFFFF00FFFFFFFFFFFFFFFF00000000000000FFFFFFFFFFFFFF00FFFFFFFFFFFFFFFF00FFFFFFFF0000000000000000000000FFFFFFFFFFFFFF00FFFFFFFFFF
1004
FFFFFF00FFFFFFFF0000000000000000FF0000FFFFFFFFFFFFFF00FFFFFFFFFFFFFFFF00FFFFFFFFFFFFFF0000000000000000FFFFFFFFFFFFFF00FFFFFFFFFFFFFFFF00FFFFFFFFFFFFFFFFFFFFFF00000000FFFFFFFFFFFFFF00FFFFFFFFFFFFFFFF00FF00FF000000000000FF0000FFFFFFFFFFFFFFFFFFFF0000FFFFFF
1004
FFFFFFFF00000000000000000000000000FFFFFFFFFFFFFFFFFFFF0000FFFFFFFFFFFFFF00FF00FF0000000000FFFF0000FFFFFFFFFFFFFFFFFF0000000000000000000000000000000000000000000000FFFFFFFFFFFFFFFFFFFFFFFFFFFFFFFFFFFFFFFFFFFFFF00FFFF00FFFFFFFFFFFFFFFFFFFFFFFFFFFFFFFFFFFFFF
1004
FFFFFFFFFFFFFFFF000000000000FFFFFFFFFFFFFFFFFFFFFFFFFFFFFFFFFFFFFFFFFFFFFFFFFFFF000000000000FFFFFFFFFFFFFFFFFFFFFFFFFFFFFFFFFFFFFFFFFFFFFFFFFFFFFF00000000FFFFFFFFFFFFFFFFFFFFFFFFFFFFFFFFFFFFFFFFFFFFFFFFFFFFFFFF0000000000FFFFFFFFFFFFFFFFFFFFFFFFFFFFFFFFFF
1004
FFFFFFFFFFFFFFFFFFFF0000000000FFFFFFFFFFFFFFFFFFFFFFFFFFFFFFFFFFFFFFFFFFFFFFFFFFFFFFFFFFFFFFFFFFFFFFFFFFFFFFFFFF
  0
BLOCK_RECORD
  5
1CB
330
1
100
AcDbSymbolTableRecord
100
AcDbBlockTableRecord
  2
LTC_4641
1001
ACAD
1000
DesignCenter Data
1002
{
1070
     1
1070
     1
1002
}
1001
CONTENTBLOCKICON
1071
        0
1004
2800000020000000200000000100080000000000000400000000000000000000000000000000000000000000000080000080000000808000800000008000800080800000C0C0C000C0DCC000F0CAA6000020400000206000002080000020A0000020C0000020E00000400000004020000040400000406000004080000040A0
1004
000040C0000040E00000600000006020000060400000606000006080000060A0000060C0000060E00000800000008020000080400000806000008080000080A0000080C0000080E00000A0000000A0200000A0400000A0600000A0800000A0A00000A0C00000A0E00000C0000000C0200000C0400000C0600000C0800000C0
1004
A00000C0C00000C0E00000E0000000E0200000E0400000E0600000E0800000E0A00000E0C00000E0E00040000000400020004000400040006000400080004000A0004000C0004000E00040200000402020004020400040206000402080004020A0004020C0004020E000404000004040200040404000404060004040800040
1004
40A0004040C0004040E00040600000406020004060400040606000406080004060A0004060C0004060E00040800000408020004080400040806000408080004080A0004080C0004080E00040A0000040A0200040A0400040A0600040A0800040A0A00040A0C00040A0E00040C0000040C0200040C0400040C0600040C08000
1004
40C0A00040C0C00040C0E00040E0000040E0200040E0400040E0600040E0800040E0A00040E0C00040E0E00080000000800020008000400080006000800080008000A0008000C0008000E00080200000802020008020400080206000802080008020A0008020C0008020E00080400000804020008040400080406000804080
1004
008040A0008040C0008040E00080600000806020008060400080606000806080008060A0008060C0008060E00080800000808020008080400080806000808080008080A0008080C0008080E00080A0000080A0200080A0400080A0600080A0800080A0A00080A0C00080A0E00080C0000080C0200080C0400080C0600080C0
1004
800080C0A00080C0C00080C0E00080E0000080E0200080E0400080E0600080E0800080E0A00080E0C00080E0E000C0000000C0002000C0004000C0006000C0008000C000A000C000C000C000E000C0200000C0202000C0204000C0206000C0208000C020A000C020C000C020E000C0400000C0402000C0404000C0406000C0
1004
408000C040A000C040C000C040E000C0600000C0602000C0604000C0606000C0608000C060A000C060C000C060E000C0800000C0802000C0804000C0806000C0808000C080A000C080C000C080E000C0A00000C0A02000C0A04000C0A06000C0A08000C0A0A000C0A0C000C0A0E000C0C00000C0C02000C0C04000C0C06000
1004
C0C08000C0C0A000F0FBFF00A4A0A000808080000000FF0000FF000000FFFF00FF000000FF00FF00FFFF0000FFFFFF00FFFFFFFFFFFFFFFFFFFFFFFFFFFFFFFFFFFFFFFFFFFFFFFFFFFFFFFFFFFFFFFFFFFFFFFFFFFFFFFFFFFFFFFFFFFF00FFFFFFFFFFFFFFFFFFFFFF00FFFFFFFFFFFFFFFFFFFFFFFFFFFFFFFFFFFFFF00
1004
FF00FF00FF00000000FF0000FFFFFFFFFFFFFFFFFFFFFFFFFFFFFFFFFFFFFF00000000000000000000000000FFFFFFFFFFFFFFFFFFFFFFFFFFFFFFFFFFFF0000000000000000000000FF000000FFFFFFFFFFFFFFFFFFFFFFFFFFFFFFFFFFFF00000000000000000000FF0000FFFFFFFFFFFFFFFFFF00000000000000000000
1004
00000000000000000000000000FFFFFFFFFFFFFFFFFFFF0000FFFFFFFFFFFFFF00FF00FFFFFFFFFFFFFFFF0000FFFFFFFFFFFFFFFFFFFF00FFFFFFFFFFFFFFFF00FF00FFFFFFFFFFFFFFFF0000FFFFFFFFFFFFFFFFFFFF00FFFFFFFFFFFFFFFF00FF0000FF000000FFFFFF0000FFFFFFFFFFFFFFFFFFFF00FFFFFFFFFFFFFF
1004
FF00FFFFFFFF00FF00FFFFFFFF00FFFFFFFFFFFFFFFFFFFF00FFFFFFFFFFFFFFFF00FFFFFFFF00FF00FFFFFFFF00FFFFFFFFFFFFFFFFFFFF00FFFFFFFFFFFFFFFF00000000000000000000000000FFFFFFFFFFFFFFFFFFFF00FFFFFFFFFFFFFFFF00FF00FFFFFFFFFFFFFFFF0000FFFFFFFFFFFFFF00000000000000FFFFFF
1004
FFFF00000000FFFFFFFFFFFF000000FFFFFFFFFFFFFF00000000000000FFFFFFFFFF00FFFFFFFFFFFFFFFFFFFFFF00000000FFFFFFFFFFFFFF00FFFFFFFFFFFFFFFF00FFFFFFFFFFFFFFFF00000000000000FFFFFFFFFFFFFF00FFFFFFFFFFFFFFFF00FFFFFFFF0000000000000000000000FFFFFFFFFFFFFF00FFFFFFFFFF
1004
FFFFFF00FFFFFFFF0000000000000000FF0000FFFFFFFFFFFFFF00FFFFFFFFFFFFFFFF00FFFFFFFFFFFFFF0000000000000000FFFFFFFFFFFFFF00FFFFFFFFFFFFFFFF00FFFFFFFFFFFFFFFFFFFFFF00000000FFFFFFFFFFFFFF00FFFFFFFFFFFFFFFF00FF00FF000000000000FF0000FFFFFFFFFFFFFFFFFFFF0000FFFFFF
1004
FFFFFFFF00000000000000000000000000FFFFFFFFFFFFFFFFFFFF0000FFFFFFFFFFFFFF00FF00FF0000000000FFFF0000FFFFFFFFFFFFFFFFFF0000000000000000000000000000000000000000000000FFFFFFFFFFFFFFFFFFFFFFFFFFFFFFFFFFFFFFFFFFFFFF00FFFF00FFFFFFFFFFFFFFFFFFFFFFFFFFFFFFFFFFFFFF
1004
FFFFFFFFFFFFFFFF000000000000FFFFFFFFFFFFFFFFFFFFFFFFFFFFFFFFFFFFFFFFFFFFFFFFFFFF000000000000FFFFFFFFFFFFFFFFFFFFFFFFFFFFFFFFFFFFFFFFFFFFFFFFFFFFFF00000000FFFFFFFFFFFFFFFFFFFFFFFFFFFFFFFFFFFFFFFFFFFFFFFFFFFFFFFF0000000000FFFFFFFFFFFFFFFFFFFFFFFFFFFFFFFFFF
1004
FFFFFFFFFFFFFFFFFFFF0000000000FFFFFFFFFFFFFFFFFFFFFFFFFFFFFFFFFFFFFFFFFFFFFFFFFFFFFFFFFFFFFFFFFFFFFFFFFFFFFFFFFF
  0
BLOCK_RECORD
  5
1D1
330
1
100
AcDbSymbolTableRecord
100
AcDbBlockTableRecord
  2
LARGE_2_PIN
1001
ACAD
1000
DesignCenter Data
1002
{
1070
     1
1070
     1
1002
}
1001
CONTENTBLOCKICON
1071
        0
1004
2800000020000000200000000100080000000000000400000000000000000000000000000000000000000000000080000080000000808000800000008000800080800000C0C0C000C0DCC000F0CAA6000020400000206000002080000020A0000020C0000020E00000400000004020000040400000406000004080000040A0
1004
000040C0000040E00000600000006020000060400000606000006080000060A0000060C0000060E00000800000008020000080400000806000008080000080A0000080C0000080E00000A0000000A0200000A0400000A0600000A0800000A0A00000A0C00000A0E00000C0000000C0200000C0400000C0600000C0800000C0
1004
A00000C0C00000C0E00000E0000000E0200000E0400000E0600000E0800000E0A00000E0C00000E0E00040000000400020004000400040006000400080004000A0004000C0004000E00040200000402020004020400040206000402080004020A0004020C0004020E000404000004040200040404000404060004040800040
1004
40A0004040C0004040E00040600000406020004060400040606000406080004060A0004060C0004060E00040800000408020004080400040806000408080004080A0004080C0004080E00040A0000040A0200040A0400040A0600040A0800040A0A00040A0C00040A0E00040C0000040C0200040C0400040C0600040C08000
1004
40C0A00040C0C00040C0E00040E0000040E0200040E0400040E0600040E0800040E0A00040E0C00040E0E00080000000800020008000400080006000800080008000A0008000C0008000E00080200000802020008020400080206000802080008020A0008020C0008020E00080400000804020008040400080406000804080
1004
008040A0008040C0008040E00080600000806020008060400080606000806080008060A0008060C0008060E00080800000808020008080400080806000808080008080A0008080C0008080E00080A0000080A0200080A0400080A0600080A0800080A0A00080A0C00080A0E00080C0000080C0200080C0400080C0600080C0
1004
800080C0A00080C0C00080C0E00080E0000080E0200080E0400080E0600080E0800080E0A00080E0C00080E0E000C0000000C0002000C0004000C0006000C0008000C000A000C000C000C000E000C0200000C0202000C0204000C0206000C0208000C020A000C020C000C020E000C0400000C0402000C0404000C0406000C0
1004
408000C040A000C040C000C040E000C0600000C0602000C0604000C0606000C0608000C060A000C060C000C060E000C0800000C0802000C0804000C0806000C0808000C080A000C080C000C080E000C0A00000C0A02000C0A04000C0A06000C0A08000C0A0A000C0A0C000C0A0E000C0C00000C0C02000C0C04000C0C06000
1004
C0C08000C0C0A000F0FBFF00A4A0A000808080000000FF0000FF000000FFFF00FF000000FF00FF00FFFF0000FFFFFF00FFFFFFFFFFFFFFFFFFFFFFFFFFFFFFFFFFFFFFFFFFFFFFFFFFFFFFFFFFFFFFFFFFFFFF0000000000000000000000000000000000000000000000000000FFFFFFFFFFFF00FFFFFFFFFFFFFFFFFFFFFF
1004
FFFFFFFFFFFFFFFFFFFFFFFFFF00FFFFFFFFFFFF00FFFFFFFFFFFFFFFFFFFFFFFFFFFF00FFFFFFFFFFFFFFFFFF00FFFFFFFFFFFF00FFFFFFFFFFFFFFFFFFFFFF00FF00FF00FFFFFFFFFFFFFFFF00FFFFFFFFFFFF00FFFFFFFFFFFFFFFFFFFFFFFF00FFFFFF00FFFFFFFFFFFFFF00FFFFFFFFFFFF00FFFFFFFFFFFFFFFFFF00
1004
FF00FF0000FFFF0000FFFFFFFFFF00FFFFFFFFFFFF00FFFFFFFFFFFFFFFFFFFF0000FFFFFF00FFFFFF00FFFFFFFF00FFFFFFFFFFFF00FFFFFFFFFFFFFFFFFF00FFFF00FF00FF00FFFFFF00FFFFFF00FFFFFFFFFFFF00FFFFFFFFFFFFFFFFFFFF00FFFF00FFFFFF000000FFFFFFFF00FFFFFFFFFFFF00FFFFFFFFFFFFFFFFFF
1004
FFFF00FFFF0000FFFF0000FFFFFFFF00FFFFFFFFFFFF00FFFFFFFFFFFFFFFFFFFFFFFF00FFFFFF0000FFFFFFFFFFFF00FFFFFFFFFFFF00FFFFFFFFFFFFFFFFFFFFFFFFFF00FF00FF00FFFFFFFFFFFF00FFFFFFFFFFFF00FFFFFFFFFFFFFFFFFFFFFFFFFFFF00FFFFFFFFFFFFFFFFFF00FFFFFFFFFFFF00FFFFFFFFFFFFFFFF
1004
FFFFFFFFFFFFFFFFFFFFFFFFFFFFFFFF00FFFFFFFFFFFF00FFFFFFFFFFFFFFFFFFFFFFFFFFFFFFFFFFFFFFFFFFFFFFFF00FFFFFFFFFFFF00FFFFFFFFFFFFFFFFFFFFFFFFFFFFFFFFFFFFFFFFFFFFFFFF00FFFFFFFFFFFF00FFFFFFFFFFFFFFFFFFFFFFFFFFFF00FFFFFFFFFFFFFFFFFF00FFFFFFFFFFFF00FFFFFFFFFFFFFF
1004
FFFFFFFF00FF00FF00FFFFFFFFFFFFFFFF00FFFFFFFFFFFF00FFFFFFFFFFFFFFFFFFFFFFFF00FFFFFF00FFFFFFFFFFFFFF00FFFFFFFFFFFF00FFFFFFFFFFFFFFFFFF00FF00FF00FFFFFF0000FFFFFFFFFF00FFFFFFFFFFFF00FFFFFFFFFFFFFFFFFFFF00FFFFFF00FFFFFFFF00FFFFFFFF00FFFFFFFFFFFF00FFFFFFFFFFFF
1004
FFFFFF00FF00FFFFFF0000FFFFFF00FFFFFF00FFFFFFFFFFFF00FFFFFFFFFFFFFFFFFFFF00FF0000FFFFFF00FF00FFFFFFFF00FFFFFFFFFFFF00FFFFFFFFFFFFFFFFFFFFFF00FFFF00FFFFFF00FFFFFFFFFF00FFFFFFFFFFFF00FFFFFFFFFFFFFFFFFFFFFFFF00FFFF000000FF00FFFFFFFF00FFFFFFFFFFFF00FFFFFFFFFF
1004
FFFFFFFFFFFFFFFF00FF0000FFFFFFFFFFFFFF00FFFFFFFFFFFF00FFFFFFFFFFFFFFFFFFFFFFFFFFFF00FFFF00FFFFFFFFFFFF00FFFFFFFFFFFF00FFFFFFFFFFFFFFFFFFFFFFFFFFFFFFFFFFFFFFFFFFFFFFFF00FFFFFFFFFFFF00FFFFFFFFFFFFFFFFFFFFFFFFFFFFFFFFFFFFFFFFFFFFFFFF00FFFFFFFFFFFF0000000000
1004
000000000000000000000000000000000000000000FFFFFFFFFFFFFFFFFFFFFFFFFFFFFFFFFFFFFFFFFFFFFFFFFFFFFFFFFFFFFFFFFFFFFF
  0
BLOCK_RECORD
  5
1DF
330
1
100
AcDbSymbolTableRecord
100
AcDbBlockTableRecord
  2
BNC
1001
ACAD
1000
DesignCenter Data
1002
{
1070
     1
1070
     1
1002
}
  0
BLOCK_RECORD
  5
1E7
330
1
100
AcDbSymbolTableRecord
100
AcDbBlockTableRecord
  2
GROUND_SYMBOL
1001
ACAD
1000
DesignCenter Data
1002
{
1070
     1
1070
     1
1002
}
1001
CONTENTBLOCKICON
1071
        0
1004
2800000020000000200000000100080000000000000400000000000000000000000000000000000000000000000080000080000000808000800000008000800080800000C0C0C000C0DCC000F0CAA6000020400000206000002080000020A0000020C0000020E00000400000004020000040400000406000004080000040A0
1004
000040C0000040E00000600000006020000060400000606000006080000060A0000060C0000060E00000800000008020000080400000806000008080000080A0000080C0000080E00000A0000000A0200000A0400000A0600000A0800000A0A00000A0C00000A0E00000C0000000C0200000C0400000C0600000C0800000C0
1004
A00000C0C00000C0E00000E0000000E0200000E0400000E0600000E0800000E0A00000E0C00000E0E00040000000400020004000400040006000400080004000A0004000C0004000E00040200000402020004020400040206000402080004020A0004020C0004020E000404000004040200040404000404060004040800040
1004
40A0004040C0004040E00040600000406020004060400040606000406080004060A0004060C0004060E00040800000408020004080400040806000408080004080A0004080C0004080E00040A0000040A0200040A0400040A0600040A0800040A0A00040A0C00040A0E00040C0000040C0200040C0400040C0600040C08000
1004
40C0A00040C0C00040C0E00040E0000040E0200040E0400040E0600040E0800040E0A00040E0C00040E0E00080000000800020008000400080006000800080008000A0008000C0008000E00080200000802020008020400080206000802080008020A0008020C0008020E00080400000804020008040400080406000804080
1004
008040A0008040C0008040E00080600000806020008060400080606000806080008060A0008060C0008060E00080800000808020008080400080806000808080008080A0008080C0008080E00080A0000080A0200080A0400080A0600080A0800080A0A00080A0C00080A0E00080C0000080C0200080C0400080C0600080C0
1004
800080C0A00080C0C00080C0E00080E0000080E0200080E0400080E0600080E0800080E0A00080E0C00080E0E000C0000000C0002000C0004000C0006000C0008000C000A000C000C000C000E000C0200000C0202000C0204000C0206000C0208000C020A000C020C000C020E000C0400000C0402000C0404000C0406000C0
1004
408000C040A000C040C000C040E000C0600000C0602000C0604000C0606000C0608000C060A000C060C000C060E000C0800000C0802000C0804000C0806000C0808000C080A000C080C000C080E000C0A00000C0A02000C0A04000C0A06000C0A08000C0A0A000C0A0C000C0A0E000C0C00000C0C02000C0C04000C0C06000
1004
C0C08000C0C0A000F0FBFF00A4A0A000808080000000FF0000FF000000FFFF00FF000000FF00FF00FFFF0000FFFFFF00FFFFFFFFFFFFFFFFFFFFFFFFFFFFFFFFFFFFFFFFFFFFFFFFFFFFFFFFFFFFFFFFFFFFFFFFFFFFFFFFFFFFFFFFFFFFFFFFFFFFFFFFFFFFFFFFFFFFFFFFFFFFFFFFFFFFFFFFFFFFFFFFFFFFFFFFFFFFFF
1004
FFFFFFFFFFFFFFFFFFFFFFFFFFFFFFFFFFFFFFFFFFFFFFFFFFFFFFFFFFFFFFFFFFFFFFFFFFFFFFFFFFFFFFFFFFFFFFFFFFFFFFFFFFFFFFFFFFFFFFFFFFFFFFFFFFFFFFFFFFFFFFFFFFFFFFFFFFFFFFFFFFFFFFFFFFFFFFFFFFFFFFFFFFFFFFFFFFFFFFFFFFFFFFFFFFFFFFFFFFFFFFFFFFFFFFFFFFFFFFFFFFFFFFFFFFFFFF
1004
FFFFFFFFFFFFFFFFFFFFFFFFFFFFFFFFFFFFFFFFFFFFFFFFFFFFFFFFFFFFFFFFFFFFFFFFFFFFFFFFFFFFFFFFFFFFFFFFFFFFFFFFFFFFFFFFFFFFFF0000FFFFFFFFFFFFFFFFFFFFFFFFFFFFFFFFFFFFFFFFFFFFFFFFFFFFFFFFFFFF0000FFFFFFFFFFFFFFFFFFFFFFFFFFFFFFFFFFFFFFFFFFFFFFFFFFFF0000FFFF0000FFFF
1004
FFFFFFFFFFFFFFFFFFFFFFFFFFFFFFFFFFFFFFFFFFFFFFFF0000FFFF0000FFFFFFFFFFFFFFFFFFFFFFFFFFFFFFFFFFFFFFFFFFFF0000FFFF0000FFFF0000FFFFFFFFFFFFFFFFFFFFFFFFFFFFFFFFFFFFFFFFFFFF0000FFFF0000FFFF0000FFFFFFFFFFFFFFFFFFFFFFFFFFFFFFFFFFFFFFFFFFFF0000FFFF0000FFFF0000FF
1004
FFFFFFFFFFFFFFFFFFFFFFFFFFFFFFFFFFFFFFFFFF0000FFFF0000FFFF00000000000000000000000000000000000000000000FFFF0000FFFF0000FFFF00000000000000000000000000000000000000000000FFFF0000FFFF0000FFFF0000FFFFFFFFFFFFFFFFFFFFFFFFFFFFFFFFFFFFFFFFFFFF0000FFFF0000FFFF0000
1004
FFFFFFFFFFFFFFFFFFFFFFFFFFFFFFFFFFFFFFFFFFFFFFFFFFFF0000FFFF0000FFFFFFFFFFFFFFFFFFFFFFFFFFFFFFFFFFFFFFFFFFFFFFFFFFFF0000FFFF0000FFFFFFFFFFFFFFFFFFFFFFFFFFFFFFFFFFFFFFFFFFFFFFFFFFFFFFFFFFFF0000FFFFFFFFFFFFFFFFFFFFFFFFFFFFFFFFFFFFFFFFFFFFFFFFFFFFFFFFFFFF00
1004
00FFFFFFFFFFFFFFFFFFFFFFFFFFFFFFFFFFFFFFFFFFFFFFFFFFFFFFFFFFFF0000FFFFFFFFFFFFFFFFFFFFFFFFFFFFFFFFFFFFFFFFFFFFFFFFFFFFFFFFFFFFFFFFFFFFFFFFFFFFFFFFFFFFFFFFFFFFFFFFFFFFFFFFFFFFFFFFFFFFFFFFFFFFFFFFFFFFFFFFFFFFFFFFFFFFFFFFFFFFFFFFFFFFFFFFFFFFFFFFFFFFFFFFFFFF
1004
FFFFFFFFFFFFFFFFFFFFFFFFFFFFFFFFFFFFFFFFFFFFFFFFFFFFFFFFFFFFFFFFFFFFFFFFFFFFFFFFFFFFFFFFFFFFFFFFFFFFFFFFFFFFFFFFFFFFFFFFFFFFFFFFFFFFFFFFFFFFFFFFFFFFFFFFFFFFFFFFFFFFFFFFFFFFFFFFFFFFFFFFFFFFFFFFFFFFFFFFFFFFFFFFFFFFFFFFFFFFFFFFFFFFFFFFFFFFFFFFFFFFFFFFFFFFFF
1004
FFFFFFFFFFFFFFFFFFFFFFFFFFFFFFFFFFFFFFFFFFFFFFFFFFFFFFFFFFFFFFFFFFFFFFFFFFFFFFFFFFFFFFFFFFFFFFFFFFFFFFFFFFFFFFFF
  0
BLOCK_RECORD
  5
1EE
330
1
100
AcDbSymbolTableRecord
100
AcDbBlockTableRecord
  2
CONNR3MOLEX
1001
ACAD
1000
DesignCenter Data
1002
{
1070
     1
1070
     1
1002
}
1001
CONTENTBLOCKICON
1071
        0
1004
2800000020000000200000000100080000000000000400000000000000000000000000000000000000000000000080000080000000808000800000008000800080800000C0C0C000C0DCC000F0CAA6000020400000206000002080000020A0000020C0000020E00000400000004020000040400000406000004080000040A0
1004
000040C0000040E00000600000006020000060400000606000006080000060A0000060C0000060E00000800000008020000080400000806000008080000080A0000080C0000080E00000A0000000A0200000A0400000A0600000A0800000A0A00000A0C00000A0E00000C0000000C0200000C0400000C0600000C0800000C0
1004
A00000C0C00000C0E00000E0000000E0200000E0400000E0600000E0800000E0A00000E0C00000E0E00040000000400020004000400040006000400080004000A0004000C0004000E00040200000402020004020400040206000402080004020A0004020C0004020E000404000004040200040404000404060004040800040
1004
40A0004040C0004040E00040600000406020004060400040606000406080004060A0004060C0004060E00040800000408020004080400040806000408080004080A0004080C0004080E00040A0000040A0200040A0400040A0600040A0800040A0A00040A0C00040A0E00040C0000040C0200040C0400040C0600040C08000
1004
40C0A00040C0C00040C0E00040E0000040E0200040E0400040E0600040E0800040E0A00040E0C00040E0E00080000000800020008000400080006000800080008000A0008000C0008000E00080200000802020008020400080206000802080008020A0008020C0008020E00080400000804020008040400080406000804080
1004
008040A0008040C0008040E00080600000806020008060400080606000806080008060A0008060C0008060E00080800000808020008080400080806000808080008080A0008080C0008080E00080A0000080A0200080A0400080A0600080A0800080A0A00080A0C00080A0E00080C0000080C0200080C0400080C0600080C0
1004
800080C0A00080C0C00080C0E00080E0000080E0200080E0400080E0600080E0800080E0A00080E0C00080E0E000C0000000C0002000C0004000C0006000C0008000C000A000C000C000C000E000C0200000C0202000C0204000C0206000C0208000C020A000C020C000C020E000C0400000C0402000C0404000C0406000C0
1004
408000C040A000C040C000C040E000C0600000C0602000C0604000C0606000C0608000C060A000C060C000C060E000C0800000C0802000C0804000C0806000C0808000C080A000C080C000C080E000C0A00000C0A02000C0A04000C0A06000C0A08000C0A0A000C0A0C000C0A0E000C0C00000C0C02000C0C04000C0C06000
1004
C0C08000C0C0A000F0FBFF00A4A0A000808080000000FF0000FF000000FFFF00FF000000FF00FF00FFFF0000FFFFFF00FFFFFFFFFFFFFFFFFFFFFFFFFFFFFFFFFFFFFFFFFFFFFFFFFFFFFFFFFFFFFFFFFFFFFF0000000000000000000000000000000000000000000000000000FFFFFFFFFFFF00FFFFFFFFFFFFFFFFFFFFFF
1004
FFFFFFFFFFFFFFFFFFFFFFFFFF00FFFFFFFFFFFF00FFFFFFFFFFFFFFFFFFFFFFFFFFFFFFFFFFFFFFFFFFFFFFFF00FFFFFFFFFFFF00FFFF0000000000000000000000000000000000000000000000FFFFFFFFFFFF00FFFF00FFFFFFFFFFFFFF0000000000FFFFFFFFFFFFFFFFFFFFFFFFFFFFFFFF00FFFF00FFFFFFFFFFFFFF
1004
0000FFFFFFFFFFFFFFFFFFFFFFFFFFFFFFFFFFFFFF00FFFF00FFFFFFFFFFFFFF0000FFFFFFFFFFFFFFFFFFFFFFFFFFFFFFFFFFFFFF00FFFF00FFFFFFFFFFFFFF0000000000FFFFFFFFFFFFFFFFFFFFFFFFFFFFFFFF00FFFF00000000000000000000FFFF00FFFFFFFFFFFFFFFFFFFFFFFFFFFFFFFF00FFFF00FFFFFFFFFFFF
1004
FF0000FFFF00FFFFFFFFFFFFFFFFFFFFFFFFFFFFFFFF00FFFF00FFFFFFFFFFFFFF0000FFFF00FFFFFFFFFFFFFFFFFFFFFFFFFFFFFFFF00FFFF00FFFFFFFFFFFFFF0000FFFF00FFFFFFFFFFFFFFFFFFFFFFFFFFFFFFFF00FFFF00000000000000000000FFFF00FFFFFFFFFFFFFFFFFFFFFFFFFFFFFFFF00FFFF00FFFFFFFFFF
1004
FFFF0000000000FFFFFFFFFFFFFFFFFFFFFFFFFFFFFFFF00FFFF00FFFFFFFFFFFFFF0000FFFFFFFFFFFFFFFFFFFFFFFFFFFFFFFFFFFFFF00FFFF00FFFFFFFFFFFFFF0000FFFFFFFFFFFFFFFFFFFFFFFFFFFFFFFFFFFFFF00FFFF00FFFFFFFFFFFFFF0000000000FFFFFFFFFFFFFFFFFFFFFFFFFFFFFFFF00FFFF0000000000
1004
0000000000FFFF00FFFFFFFFFFFFFFFFFFFFFFFFFFFFFFFF00FFFF00FFFFFFFFFFFFFF0000FFFF00FFFFFFFFFFFFFFFFFFFFFFFFFFFFFFFF00FFFF00FFFFFFFFFFFFFF0000FFFF00FFFFFFFFFFFFFFFFFFFFFFFFFFFFFFFF00FFFF00000000000000000000FFFF00FFFFFFFFFFFFFFFFFFFFFFFFFFFFFFFF00FFFF00FFFFFF
1004
FFFFFFFF0000000000FFFFFFFFFFFFFFFFFFFFFFFFFFFFFFFF00FFFF00FFFFFFFFFFFFFF0000FFFFFFFFFFFFFFFFFFFFFFFFFFFFFFFFFFFFFF00FFFF00FFFFFFFFFFFFFF0000FFFFFFFFFFFFFFFFFFFFFFFFFFFFFFFFFFFFFF00FFFF00FFFFFFFFFFFFFF0000FFFFFFFFFFFFFFFFFFFFFFFFFFFFFFFFFFFFFF00FFFF00FFFF
1004
FFFFFFFFFF0000000000FFFFFFFFFFFFFFFFFFFFFFFFFFFFFFFF00FFFF0000000000000000000000000000000000000000000000FFFFFFFFFFFF00FFFFFFFFFFFFFFFFFFFFFFFFFFFFFFFFFFFFFFFFFFFFFFFF00FFFFFFFFFFFF00FFFFFFFFFFFFFFFFFFFFFFFFFFFFFFFFFFFFFFFFFFFFFFFF00FFFFFFFFFFFF0000000000
1004
000000000000000000000000000000000000000000FFFFFFFFFFFFFFFFFFFFFFFFFFFFFFFFFFFFFFFFFFFFFFFFFFFFFFFFFFFFFFFFFFFFFF
  0
BLOCK_RECORD
  5
209
330
1
100
AcDbSymbolTableRecord
100
AcDbBlockTableRecord
  2
BNC_FEMALE_FRONT
1001
ACAD
1000
DesignCenter Data
1002
{
1070
     1
1070
     1
1002
}
  0
BLOCK_RECORD
  5
216
330
1
100
AcDbSymbolTableRecord
100
AcDbBlockTableRecord
  2
ST_CONN_FRONT
1001
ACAD
1000
DesignCenter Data
1002
{
1070
     1
1070
     1
1002
}
  0
BLOCK_RECORD
  5
221
330
1
100
AcDbSymbolTableRecord
100
AcDbBlockTableRecord
  2
GROUND
1001
ACAD
1000
DesignCenter Data
1002
{
1070
     1
1070
     1
1002
}
1001
CONTENTBLOCKICON
1071
        0
1004
2800000020000000200000000100080000000000000400000000000000000000000000000000000000000000000080000080000000808000800000008000800080800000C0C0C000C0DCC000F0CAA6000020400000206000002080000020A0000020C0000020E00000400000004020000040400000406000004080000040A0
1004
000040C0000040E00000600000006020000060400000606000006080000060A0000060C0000060E00000800000008020000080400000806000008080000080A0000080C0000080E00000A0000000A0200000A0400000A0600000A0800000A0A00000A0C00000A0E00000C0000000C0200000C0400000C0600000C0800000C0
1004
A00000C0C00000C0E00000E0000000E0200000E0400000E0600000E0800000E0A00000E0C00000E0E00040000000400020004000400040006000400080004000A0004000C0004000E00040200000402020004020400040206000402080004020A0004020C0004020E000404000004040200040404000404060004040800040
1004
40A0004040C0004040E00040600000406020004060400040606000406080004060A0004060C0004060E00040800000408020004080400040806000408080004080A0004080C0004080E00040A0000040A0200040A0400040A0600040A0800040A0A00040A0C00040A0E00040C0000040C0200040C0400040C0600040C08000
1004
40C0A00040C0C00040C0E00040E0000040E0200040E0400040E0600040E0800040E0A00040E0C00040E0E00080000000800020008000400080006000800080008000A0008000C0008000E00080200000802020008020400080206000802080008020A0008020C0008020E00080400000804020008040400080406000804080
1004
008040A0008040C0008040E00080600000806020008060400080606000806080008060A0008060C0008060E00080800000808020008080400080806000808080008080A0008080C0008080E00080A0000080A0200080A0400080A0600080A0800080A0A00080A0C00080A0E00080C0000080C0200080C0400080C0600080C0
1004
800080C0A00080C0C00080C0E00080E0000080E0200080E0400080E0600080E0800080E0A00080E0C00080E0E000C0000000C0002000C0004000C0006000C0008000C000A000C000C000C000E000C0200000C0202000C0204000C0206000C0208000C020A000C020C000C020E000C0400000C0402000C0404000C0406000C0
1004
408000C040A000C040C000C040E000C0600000C0602000C0604000C0606000C0608000C060A000C060C000C060E000C0800000C0802000C0804000C0806000C0808000C080A000C080C000C080E000C0A00000C0A02000C0A04000C0A06000C0A08000C0A0A000C0A0C000C0A0E000C0C00000C0C02000C0C04000C0C06000
1004
C0C08000C0C0A000F0FBFF00A4A0A000808080000000FF0000FF000000FFFF00FF000000FF00FF00FFFF0000FFFFFF00FFFFFFFFFFFFFFFFFFFFFFFFFFFFFFFFFFFFFFFFFFFFFFFFFFFFFFFFFFFFFFFFFFFFFFFFFFFFFFFFFFFFFFFFFFFFFFFFFFFFFFFFFFFFFFFFFFFFFFFFFFFFFFFFFFFFFFFFFFFFFFFFFFFFFFFFFFFFFF
1004
FFFFFFFFFFFFFFFFFFFFFFFFFFFFFFFFFFFFFFFFFFFFFFFFFFFFFFFFFFFFFFFFFFFFFFFFFFFFFFFFFFFFFFFFFFFFFFFFFFFFFFFFFFFFFFFFFFFFFFFFFFFFFFFFFFFFFFFFFFFFFFFFFFFFFFFFFFFFFFFFFFFFFFFFFFFFFFFFFFFFFFFFFFFFFFFFFFFFFFFFFFFFFFFFFFFFFFFFFFFFFFFFFFFFFFFFFFFFFFFFFFFFFFFFFFFFFF
1004
FFFFFFFFFFFFFFFFFFFFFFFFFFFFFFFFFFFFFFFFFFFFFFFFFFFFFFFFFFFFFFFFFFFFFFFFFFFFFFFFFFFFFFFFFFFFFFFFFFFFFFFFFFFFFFFFFFFFFF0000FFFFFFFFFFFFFFFFFFFFFFFFFFFFFFFFFFFFFFFFFFFFFFFFFFFFFFFFFFFF0000FFFFFFFFFFFFFFFFFFFFFFFFFFFFFFFFFFFFFFFFFFFFFFFFFFFF0000FFFF0000FFFF
1004
FFFFFFFFFFFFFFFFFFFFFFFFFFFFFFFFFFFFFFFFFFFFFFFF0000FFFF0000FFFFFFFFFFFFFFFFFFFFFFFFFFFFFFFFFFFFFFFFFFFF0000FFFF0000FFFF0000FFFFFFFFFFFFFFFFFFFFFFFFFFFFFFFFFFFFFFFFFFFF0000FFFF0000FFFF0000FFFFFFFFFFFFFFFFFFFFFFFFFFFFFFFFFFFFFFFFFFFF0000FFFF0000FFFF0000FF
1004
FFFFFFFFFFFFFFFFFFFFFFFFFFFFFFFFFFFFFFFFFF0000FFFF0000FFFF00000000000000000000000000000000000000000000FFFF0000FFFF0000FFFF00000000000000000000000000000000000000000000FFFF0000FFFF0000FFFF0000FFFFFFFFFFFFFFFFFFFFFFFFFFFFFFFFFFFFFFFFFFFF0000FFFF0000FFFF0000
1004
FFFFFFFFFFFFFFFFFFFFFFFFFFFFFFFFFFFFFFFFFFFFFFFFFFFF0000FFFF0000FFFFFFFFFFFFFFFFFFFFFFFFFFFFFFFFFFFFFFFFFFFFFFFFFFFF0000FFFF0000FFFFFFFFFFFFFFFFFFFFFFFFFFFFFFFFFFFFFFFFFFFFFFFFFFFFFFFFFFFF0000FFFFFFFFFFFFFFFFFFFFFFFFFFFFFFFFFFFFFFFFFFFFFFFFFFFFFFFFFFFF00
1004
00FFFFFFFFFFFFFFFFFFFFFFFFFFFFFFFFFFFFFFFFFFFFFFFFFFFFFFFFFFFF0000FFFFFFFFFFFFFFFFFFFFFFFFFFFFFFFFFFFFFFFFFFFFFFFFFFFFFFFFFFFFFFFFFFFFFFFFFFFFFFFFFFFFFFFFFFFFFFFFFFFFFFFFFFFFFFFFFFFFFFFFFFFFFFFFFFFFFFFFFFFFFFFFFFFFFFFFFFFFFFFFFFFFFFFFFFFFFFFFFFFFFFFFFFFF
1004
FFFFFFFFFFFFFFFFFFFFFFFFFFFFFFFFFFFFFFFFFFFFFFFFFFFFFFFFFFFFFFFFFFFFFFFFFFFFFFFFFFFFFFFFFFFFFFFFFFFFFFFFFFFFFFFFFFFFFFFFFFFFFFFFFFFFFFFFFFFFFFFFFFFFFFFFFFFFFFFFFFFFFFFFFFFFFFFFFFFFFFFFFFFFFFFFFFFFFFFFFFFFFFFFFFFFFFFFFFFFFFFFFFFFFFFFFFFFFFFFFFFFFFFFFFFFFF
1004
FFFFFFFFFFFFFFFFFFFFFFFFFFFFFFFFFFFFFFFFFFFFFFFFFFFFFFFFFFFFFFFFFFFFFFFFFFFFFFFFFFFFFFFFFFFFFFFFFFFFFFFFFFFFFFFF
  0
BLOCK_RECORD
  5
225
330
1
100
AcDbSymbolTableRecord
100
AcDbBlockTableRecord
  2
R3_SCREW_HEAD
1001
ACAD
1000
DesignCenter Data
1002
{
1070
     1
1070
     1
1002
}
  0
BLOCK_RECORD
  5
234
330
1
100
AcDbSymbolTableRecord
100
AcDbBlockTableRecord
  2
R3_1_INCH_REAR_SCREW
1001
ACAD
1000
DesignCenter Data
1002
{
1070
     1
1070
     1
1002
}
1001
CONTENTBLOCKICON
1071
        0
1004
2800000020000000200000000100080000000000000400000000000000000000000000000000000000000000000080000080000000808000800000008000800080800000C0C0C000C0DCC000F0CAA6000020400000206000002080000020A0000020C0000020E00000400000004020000040400000406000004080000040A0
1004
000040C0000040E00000600000006020000060400000606000006080000060A0000060C0000060E00000800000008020000080400000806000008080000080A0000080C0000080E00000A0000000A0200000A0400000A0600000A0800000A0A00000A0C00000A0E00000C0000000C0200000C0400000C0600000C0800000C0
1004
A00000C0C00000C0E00000E0000000E0200000E0400000E0600000E0800000E0A00000E0C00000E0E00040000000400020004000400040006000400080004000A0004000C0004000E00040200000402020004020400040206000402080004020A0004020C0004020E000404000004040200040404000404060004040800040
1004
40A0004040C0004040E00040600000406020004060400040606000406080004060A0004060C0004060E00040800000408020004080400040806000408080004080A0004080C0004080E00040A0000040A0200040A0400040A0600040A0800040A0A00040A0C00040A0E00040C0000040C0200040C0400040C0600040C08000
1004
40C0A00040C0C00040C0E00040E0000040E0200040E0400040E0600040E0800040E0A00040E0C00040E0E00080000000800020008000400080006000800080008000A0008000C0008000E00080200000802020008020400080206000802080008020A0008020C0008020E00080400000804020008040400080406000804080
1004
008040A0008040C0008040E00080600000806020008060400080606000806080008060A0008060C0008060E00080800000808020008080400080806000808080008080A0008080C0008080E00080A0000080A0200080A0400080A0600080A0800080A0A00080A0C00080A0E00080C0000080C0200080C0400080C0600080C0
1004
800080C0A00080C0C00080C0E00080E0000080E0200080E0400080E0600080E0800080E0A00080E0C00080E0E000C0000000C0002000C0004000C0006000C0008000C000A000C000C000C000E000C0200000C0202000C0204000C0206000C0208000C020A000C020C000C020E000C0400000C0402000C0404000C0406000C0
1004
408000C040A000C040C000C040E000C0600000C0602000C0604000C0606000C0608000C060A000C060C000C060E000C0800000C0802000C0804000C0806000C0808000C080A000C080C000C080E000C0A00000C0A02000C0A04000C0A06000C0A08000C0A0A000C0A0C000C0A0E000C0C00000C0C02000C0C04000C0C06000
1004
C0C08000C0C0A000F0FBFF00A4A0A000808080000000FF0000FF000000FFFF00FF000000FF00FF00FFFF0000FFFFFF00FFFFFFFFFFFFFFFFFFFFFFFFFFFFFFFFFFFFFFFFFFFFFFFFFFFFFFFFFFFFFFFFFFFFFFFFFFFFFFFFFFFFFFFFFFFFFF0000FFFFFFFFFFFFFFFFFFFFFFFFFFFFFFFFFFFFFFFFFFFFFFFFFFFFFFFFFFFF
1004
0000FFFFFFFFFFFFFFFFFFFFFFFFFFFFFFFFFFFFFFFFFFFFFFFFFFFFFFFFFFFFFFFFFFFFFFFFFFFFFFFFFFFFFFFFFFFFFFFFFFFFFFFFFFFFFFFFFFFFFFFFFFFFFFFFFFFFFFFFFFFFFFFFFFFFFFFFFFFFFFFFFFFFFFFFFFFFFFFFFFFFFFFFFFFFFFFFFFFFFFFFFFFFFFFFFFFFFFFFFFFFFFFFFFFFFFFFFFFFFFFFFFFFFFFFFF
1004
FFFFFFFFFFFFFFFFFFFFFFFFFFFFFFFFFFFFFFFFFFFFFFFFFFFFFFFFFFFFFFFFFFFFFFFFFFFFFFFFFFFFFFFFFFFFFFFFFFFFFFFFFFFFFFFFFFFFFFFFFFFFFFFFFFFFFFFFFFFFFFFFFFFFFFFFFFFFFFFFFFFFFFFFFFFFFFFFFFFFFFFFFFFFFFFFFFFFFFFFFFFFFFFFFFFFFFFFFFFFFFFFFFFFFFFFFFFFFFFFFFFFFFFFFFFFFF
1004
FFFFFFFFFFFFFFFFFFFFFFFFFFFFFFFFFFFFFFFFFFFFFFFFFFFFFFFFFFFFFFFFFFFFFFFFFFFFFFFFFFFFFFFFFFFFFFFFFFFFFFFFFFFFFFFFFFFFFFFFFFFFFFFFFFFFFFFFFFFFFFFFFFFFFFFFFFFFFFFFFFFFFFFFFFFFFFFFFFFFFFFFFFFFFFFFFFFFFFFFFFFFFFFFFFFFFFFFFFFFFFFFFFFFFFFFFFFFFFFFFFFFFFFFFFFFFF
1004
FFFFFFFFFFFFFFFFFFFFFFFFFFFFFFFFFFFFFFFFFFFFFFFFFFFFFFFFFFFFFFFFFFFFFFFFFFFFFFFFFFFFFFFFFFFFFFFFFFFFFFFFFFFFFFFFFFFFFFFFFFFFFFFFFFFFFFFFFFFFFFFFFFFFFFFFFFFFFFFFFFFFFFFFFFFFFFFFFFFFFFFFFFFFFFFFFFFFFFFFFFFFFFFFFFFFFFFFFFFFFFFFFFFFFFFFFFFFFFFFFFFFFFFFFFFFFF
1004
FFFFFFFFFFFFFFFFFFFFFFFFFFFFFFFFFFFFFFFFFFFFFFFFFFFFFFFFFFFFFFFFFFFFFFFFFFFFFFFFFFFFFFFFFFFFFFFFFFFFFFFFFFFFFFFFFFFFFFFFFFFFFFFFFFFFFFFFFFFFFFFFFFFFFFFFFFFFFFFFFFFFFFFFFFFFFFFFFFFFFFFFFFFFFFFFFFFFFFFFFFFFFFFFFFFFFFFFFFFFFFFFFFFFFFFFFFFFFFFFFFFFFFFFFFFFFF
1004
FFFFFFFFFFFFFFFFFFFFFFFFFFFFFFFFFFFFFFFFFFFFFFFFFFFFFFFFFFFFFFFFFFFFFFFFFFFFFFFFFFFFFFFFFFFFFFFFFFFFFFFFFFFFFFFFFFFFFFFFFFFFFFFFFFFFFFFFFFFFFFFFFFFFFFFFFFFFFFFFFFFFFFFFFFFFFFFFFFFFFFFFFFFFFFFFFFFFFFFFFFFFFFFFFFFFFFFFFFFFFFFFFFFFFFFFFFFFFFFFFFFFFFFFFFFFFF
1004
FFFFFFFFFFFFFFFFFFFFFFFFFFFFFFFFFFFFFFFFFFFFFFFFFFFFFFFFFFFFFFFFFFFFFFFFFFFFFFFFFFFFFFFFFFFFFFFFFFFFFFFFFFFFFFFFFFFFFFFFFFFFFFFFFFFFFFFFFFFFFFFFFFFFFFFFFFFFFFFFFFFFFFFFFFFFFFFFFFFFFFFFFFFFFFFFFFFFFFFFFFFF0000FFFFFFFFFFFFFFFFFFFFFFFFFFFFFFFFFFFFFFFFFFFFFF
1004
FFFFFFFFFFFFFF0000FFFFFFFFFFFFFFFFFFFFFFFFFFFFFFFFFFFFFFFFFFFFFFFFFFFFFFFFFFFFFFFFFFFFFFFFFFFFFFFFFFFFFFFFFFFFFF
  0
BLOCK_RECORD
  5
322
330
1
100
AcDbSymbolTableRecord
100
AcDbBlockTableRecord
  2
*D18
  0
BLOCK_RECORD
  5
33C
330
1
100
AcDbSymbolTableRecord
100
AcDbBlockTableRecord
  2
*D19
  0
BLOCK_RECORD
  5
356
330
1
100
AcDbSymbolTableRecord
100
AcDbBlockTableRecord
  2
*D20
  0
BLOCK_RECORD
  5
371
330
1
100
AcDbSymbolTableRecord
100
AcDbBlockTableRecord
  2
*D21
  0
BLOCK_RECORD
  5
38E
330
1
100
AcDbSymbolTableRecord
100
AcDbBlockTableRecord
  2
LTC4642
1001
ACAD
1000
DesignCenter Data
1002
{
1070
     1
1070
     1
1002
}
1001
CONTENTBLOCKICON
1071
        0
1004
2800000020000000200000000100080000000000000400000000000000000000000000000000000000000000000080000080000000808000800000008000800080800000C0C0C000C0DCC000F0CAA6000020400000206000002080000020A0000020C0000020E00000400000004020000040400000406000004080000040A0
1004
000040C0000040E00000600000006020000060400000606000006080000060A0000060C0000060E00000800000008020000080400000806000008080000080A0000080C0000080E00000A0000000A0200000A0400000A0600000A0800000A0A00000A0C00000A0E00000C0000000C0200000C0400000C0600000C0800000C0
1004
A00000C0C00000C0E00000E0000000E0200000E0400000E0600000E0800000E0A00000E0C00000E0E00040000000400020004000400040006000400080004000A0004000C0004000E00040200000402020004020400040206000402080004020A0004020C0004020E000404000004040200040404000404060004040800040
1004
40A0004040C0004040E00040600000406020004060400040606000406080004060A0004060C0004060E00040800000408020004080400040806000408080004080A0004080C0004080E00040A0000040A0200040A0400040A0600040A0800040A0A00040A0C00040A0E00040C0000040C0200040C0400040C0600040C08000
1004
40C0A00040C0C00040C0E00040E0000040E0200040E0400040E0600040E0800040E0A00040E0C00040E0E00080000000800020008000400080006000800080008000A0008000C0008000E00080200000802020008020400080206000802080008020A0008020C0008020E00080400000804020008040400080406000804080
1004
008040A0008040C0008040E00080600000806020008060400080606000806080008060A0008060C0008060E00080800000808020008080400080806000808080008080A0008080C0008080E00080A0000080A0200080A0400080A0600080A0800080A0A00080A0C00080A0E00080C0000080C0200080C0400080C0600080C0
1004
800080C0A00080C0C00080C0E00080E0000080E0200080E0400080E0600080E0800080E0A00080E0C00080E0E000C0000000C0002000C0004000C0006000C0008000C000A000C000C000C000E000C0200000C0202000C0204000C0206000C0208000C020A000C020C000C020E000C0400000C0402000C0404000C0406000C0
1004
408000C040A000C040C000C040E000C0600000C0602000C0604000C0606000C0608000C060A000C060C000C060E000C0800000C0802000C0804000C0806000C0808000C080A000C080C000C080E000C0A00000C0A02000C0A04000C0A06000C0A08000C0A0A000C0A0C000C0A0E000C0C00000C0C02000C0C04000C0C06000
1004
C0C08000C0C0A000F0FBFF00A4A0A000808080000000FF0000FF000000FFFF00FF000000FF00FF00FFFF0000FFFFFF00FFFFFFFFFFFFFFFFFFFFFFFFFFFFFFFFFFFFFFFFFFFFFFFFFFFFFFFFFFFFFFFFFFFFFFFFFFFFFFFFFFFFFFFFFFFFFFFFFFFFFFFFFFFFFFFFFFFFFFFFFFFFFFFFFFFFFFFFFFFFFFFFFFFFFFFFFFFFFF
1004
FFFFFFFFFFFFFFFFFFFFFFFFFFFFFFFFFFFFFFFFFFFFFFFFFFFFFFFFFFFFFFFFFFFFFFFFFFFFFFFFFFFFFFFFFFFFFFFFFFFFFFFFFFFFFFFFFFFFFFFFFFFFFFFFFFFFFFFFFFFFFFFFFFFFFFFFFFFFFFFFFFFFFFFFFFFFFFFFFFFFFFFFFFFFFFFFFFFFFFFFFFFFFFFFFFFFFFFFFFFFFFFFFFFFFFFFFFFFFFFFFFFFFFFFFFFFFF
1004
FFFFFFFFFFFFFFFFFFFFFFFFFFFFFFFFFFFFFFFFFFFFFFFFFFFFFFFFFFFFFFFFFFFFFFFFFFFFFFFFFFFFFFFFFFFFFFFFFFFFFFFFFFFFFFFFFFFFFFFFFFFFFFFFFFFFFFFFFFFFFFFFFFFFFFFFFFFFFFFFFFFFFFFFFFFFFFFFFFFFFFFFFFFFFFFFFFFFFFFFFFFFFFFFFFFFFFFFFFFFFFFFFFFFFFFFFFFFFFFFFFFFFFFFFF0000
1004
000000000000FFFFFFFF0000000000000000FFFFFFFFFFFFFFFFFFFFFF00000000000000000000FFFFFF0000000000000000FFFFFFFF0000000000FF000000000000000000000000FFFF00000000000000FFFFFFFFFFFF000000000000000000000000000000000000FFFF000000000000FFFFFFFF000000000000000000FF
1004
FFFFFFFFFFFF00000000FFFF000000000000FFFFFFFF00FF00000000000000FFFFFFFFFFFFFFFF000000FFFF000000000000FFFFFF0000000000000000000000FFFFFFFFFFFFFFFF00FFFF00000000000000FFFFFFFF00FF0000000000000000FFFFFFFFFFFFFFFF00FFFFFF000000000000FFFFFFFF0000000000000000FF
1004
FFFFFF0000FFFFFF000000FFFF000000000000FFFFFFFFFFFFFF0000FF00000000000000000000000000FFFFFF000000000000FFFFFFFFFFFFFFFFFFFFFF000000000000000000000000FFFF00000000000000FFFFFFFFFFFFFFFFFFFFFF000000000000000000000000FFFFFFFFFFFFFFFFFFFFFFFFFFFFFFFFFFFFFFFFFF
1004
FFFFFFFFFFFFFFFFFFFFFFFFFFFFFFFFFFFFFFFFFFFFFFFFFFFFFFFFFFFFFFFFFFFFFFFFFFFFFFFFFFFFFFFFFFFFFFFFFFFFFFFFFFFFFFFFFFFFFFFFFFFFFFFFFFFFFFFFFFFFFFFFFFFFFFFFFFFFFFFFFFFFFFFFFFFFFFFFFFFFFFFFFFFFFFFFFFFFFFFFFFFFFFFFFFFFFFFFFFFFFFFFFFFFFFFFFFFFFFFFFFFFFFFFFFFFFF
1004
FFFFFFFFFFFFFFFFFFFFFFFFFFFFFFFFFFFFFFFFFFFFFFFFFFFFFFFFFFFFFFFFFFFFFFFFFFFFFFFFFFFFFFFFFFFFFFFFFFFFFFFFFFFFFFFFFFFFFFFFFFFFFFFFFFFFFFFFFFFFFFFFFFFFFFFFFFFFFFFFFFFFFFFFFFFFFFFFFFFFFFFFFFFFFFFFFFFFFFFFFFFFFFFFFFFFFFFFFFFFFFFFFFFFFFFFFFFFFFFFFFFFFFFFFFFFFF
1004
FFFFFFFFFFFFFFFFFFFFFFFFFFFFFFFFFFFFFFFFFFFFFFFFFFFFFFFFFFFFFFFFFFFFFFFFFFFFFFFFFFFFFFFFFFFFFFFFFFFFFFFFFFFFFFFF
  0
BLOCK_RECORD
  5
59E
330
1
100
AcDbSymbolTableRecord
100
AcDbBlockTableRecord
  2
*D23
  0
BLOCK_RECORD
  5
5AB
330
1
100
AcDbSymbolTableRecord
100
AcDbBlockTableRecord
  2
*D24
  0
BLOCK_RECORD
  5
5B8
330
1
100
AcDbSymbolTableRecord
100
AcDbBlockTableRecord
  2
*D25
  0
BLOCK_RECORD
  5
5C5
330
1
100
AcDbSymbolTableRecord
100
AcDbBlockTableRecord
  2
*D26
  0
BLOCK_RECORD
  5
728
330
1
100
AcDbSymbolTableRecord
100
AcDbBlockTableRecord
  2
*D33
  0
BLOCK_RECORD
  5
742
330
1
100
AcDbSymbolTableRecord
100
AcDbBlockTableRecord
  2
*D34
  0
BLOCK_RECORD
  5
AD0
330
1
100
AcDbSymbolTableRecord
100
AcDbBlockTableRecord
  2
*D35
  0
BLOCK_RECORD
  5
ADD
330
1
100
AcDbSymbolTableRecord
100
AcDbBlockTableRecord
  2
*D36
  0
BLOCK_RECORD
  5
AEA
330
1
100
AcDbSymbolTableRecord
100
AcDbBlockTableRecord
  2
*D37
  0
BLOCK_RECORD
  5
AF7
330
1
100
AcDbSymbolTableRecord
100
AcDbBlockTableRecord
  2
*D38
  0
BLOCK_RECORD
  5
B04
330
1
100
AcDbSymbolTableRecord
100
AcDbBlockTableRecord
  2
*D39
  0
BLOCK_RECORD
  5
B11
330
1
100
AcDbSymbolTableRecord
100
AcDbBlockTableRecord
  2
*D40
  0
BLOCK_RECORD
  5
BDE
330
1
100
AcDbSymbolTableRecord
100
AcDbBlockTableRecord
  2
*D42
  0
BLOCK_RECORD
  5
C02
330
1
100
AcDbSymbolTableRecord
100
AcDbBlockTableRecord
  2
*D43
  0
BLOCK_RECORD
  5
C26
330
1
100
AcDbSymbolTableRecord
100
AcDbBlockTableRecord
  2
*D44
  0
BLOCK_RECORD
  5
C40
330
1
100
AcDbSymbolTableRecord
100
AcDbBlockTableRecord
  2
*D45
  0
BLOCK_RECORD
  5
C60
330
1
100
AcDbSymbolTableRecord
100
AcDbBlockTableRecord
  2
4642
1001
ACAD
1000
DesignCenter Data
1002
{
1070
     1
1070
     4
1002
}
1001
CONTENTBLOCKICON
1071
        0
1004
2800000020000000200000000100080000000000000400000000000000000000000000000000000000000000000080000080000000808000800000008000800080800000C0C0C000C0DCC000F0CAA6000020400000206000002080000020A0000020C0000020E00000400000004020000040400000406000004080000040A0
1004
000040C0000040E00000600000006020000060400000606000006080000060A0000060C0000060E00000800000008020000080400000806000008080000080A0000080C0000080E00000A0000000A0200000A0400000A0600000A0800000A0A00000A0C00000A0E00000C0000000C0200000C0400000C0600000C0800000C0
1004
A00000C0C00000C0E00000E0000000E0200000E0400000E0600000E0800000E0A00000E0C00000E0E00040000000400020004000400040006000400080004000A0004000C0004000E00040200000402020004020400040206000402080004020A0004020C0004020E000404000004040200040404000404060004040800040
1004
40A0004040C0004040E00040600000406020004060400040606000406080004060A0004060C0004060E00040800000408020004080400040806000408080004080A0004080C0004080E00040A0000040A0200040A0400040A0600040A0800040A0A00040A0C00040A0E00040C0000040C0200040C0400040C0600040C08000
1004
40C0A00040C0C00040C0E00040E0000040E0200040E0400040E0600040E0800040E0A00040E0C00040E0E00080000000800020008000400080006000800080008000A0008000C0008000E00080200000802020008020400080206000802080008020A0008020C0008020E00080400000804020008040400080406000804080
1004
008040A0008040C0008040E00080600000806020008060400080606000806080008060A0008060C0008060E00080800000808020008080400080806000808080008080A0008080C0008080E00080A0000080A0200080A0400080A0600080A0800080A0A00080A0C00080A0E00080C0000080C0200080C0400080C0600080C0
1004
800080C0A00080C0C00080C0E00080E0000080E0200080E0400080E0600080E0800080E0A00080E0C00080E0E000C0000000C0002000C0004000C0006000C0008000C000A000C000C000C000E000C0200000C0202000C0204000C0206000C0208000C020A000C020C000C020E000C0400000C0402000C0404000C0406000C0
1004
408000C040A000C040C000C040E000C0600000C0602000C0604000C0606000C0608000C060A000C060C000C060E000C0800000C0802000C0804000C0806000C0808000C080A000C080C000C080E000C0A00000C0A02000C0A04000C0A06000C0A08000C0A0A000C0A0C000C0A0E000C0C00000C0C02000C0C04000C0C06000
1004
C0C08000C0C0A000F0FBFF00A4A0A000808080000000FF0000FF000000FFFF00FF000000FF00FF00FFFF0000FFFFFF00FFFFFFFFFFFFFFFFFFFFFFFFFFFFFFFFFFFFFFFFFFFFFFFFFFFFFFFFFFFFFFFFFFFFFFFFFFFFFFFFFFFFFFFFFFFFFFFFFFFFFFFFFFFFFFFFFFFFFFFFFFFFFFFFFFFFFFFFFFFFFFFFFFFFFFFFFFFFFF
1004
FFFFFFFFFFFFFFFFFFFFFFFFFFFFFFFFFFFFFFFFFFFFFFFFFFFFFFFFFFFFFFFFFFFFFFFFFFFFFFFFFFFFFFFFFFFFFFFFFFFFFFFFFFFFFFFFFFFFFFFFFFFFFFFFFFFFFFFFFFFFFFFFFFFFFFFFFFFFFFFFFFFFFFFFFFFFFFFFFFFFFFFFFFFFFFFFFFFFFFFFFFFFFFFFFFFFFFFFFFFFFFFFFFFFFFFFFFFFFFFFFFFFFFFFFFFFFF
1004
FFFFFFFFFFFFFFFFFFFFFFFFFFFFFFFFFFFFFF000000000000000000000000000000000000000000000000000000FFFFFFFFFF000000000000000000000000000000000000000000000000000000FFFFFFFFFF00FFFFFFFFFFFFFFFFFFFFFFFFFFFFFFFFFFFFFFFF0000000000000000FFFFFF00FFFFFFFFFFFFFFFFFFFFFF
1004
FFFFFFFFFFFFFFFFFF000000FF00000000FFFFFF00FFFFFFFFFFFFFFFFFFFFFFFFFFFFFFFFFFFFFFFFFFFFFFFFFF00FFFFFFFFFF00000000FFFFFFFFFFFFFFFFFFFFFFFFFFFFFFFFFFFFFFFFFFFF00FFFFFFFFFF000000FFFFFFFFFFFFFFFFFFFFFFFFFFFFFFFFFFFFFFFF000000000000FFFFFF000000FFFFFFFFFFFFFFFF
1004
FFFFFFFFFFFFFFFFFFFFFFFFFFFFFF000000FFFFFF0000000000FFFFFFFFFFFFFFFFFFFFFFFFFFFFFFFFFFFFFFFFFF00FFFFFFFFFF00000000FFFFFFFFFFFFFFFFFFFFFFFFFFFFFFFFFFFFFFFFFFFF00FFFFFFFFFF00000000FFFFFFFFFFFF5B5B5B5B5BFFFFFFFFFFFFFFFFFFFFFF00FFFFFFFFFF00000000FFFFFFFFFFFF
1004
5B5B5B5B5BFFFFFFFFFFFFFFFFFFFFFF00FFFFFFFFFF00FFFFFFFFFFFFFFFFFFFFFFFFFFFFFFFFFFFFFFFFFFFFFFFFFF00FFFFFFFFFF00FFFFFFFFFFFFFFFFFFFFFFFFFFFFFFFFFFFFFFFFFFFF000000000000FFFFFF00FFFFFFFFFFFFFFFFFF000000000000FFFFFFFFFFFFFFFFFFFF000000FFFFFF00FFFFFFFFFFFFFFFF
1004
FFFF000000FFFFFFFFFFFFFFFFFFFFFFFF00FFFFFFFFFF000000000000000000000000000000000000000000000000000000FFFFFFFFFF000000000000000000000000000000000000000000000000000000FFFFFFFFFFFFFFFFFFFFFFFFFFFFFFFFFFFFFFFFFFFFFFFFFFFFFFFFFFFFFFFFFFFFFFFFFFFFFFFFFFFFFFFFFF
1004
FFFFFFFFFFFFFFFFFFFFFFFFFFFFFFFFFFFFFFFFFFFFFFFFFFFFFFFFFFFFFFFFFFFFFFFFFFFFFFFFFFFFFFFFFFFFFFFFFFFFFFFFFFFFFFFFFFFFFFFFFFFFFFFFFFFFFFFFFFFFFFFFFFFFFFFFFFFFFFFFFFFFFFFFFFFFFFFFFFFFFFFFFFFFFFFFFFFFFFFFFFFFFFFFFFFFFFFFFFFFFFFFFFFFFFFFFFFFFFFFFFFFFFFFFFFFFF
1004
FFFFFFFFFFFFFFFFFFFFFFFFFFFFFFFFFFFFFFFFFFFFFFFFFFFFFFFFFFFFFFFFFFFFFFFFFFFFFFFFFFFFFFFFFFFFFFFFFFFFFFFFFFFFFFFF
  0
BLOCK_RECORD
  5
C9B
330
1
100
AcDbSymbolTableRecord
100
AcDbBlockTableRecord
  2
*D48
  0
BLOCK_RECORD
  5
CB5
330
1
100
AcDbSymbolTableRecord
100
AcDbBlockTableRecord
  2
*D49
  0
BLOCK_RECORD
  5
CCF
330
1
100
AcDbSymbolTableRecord
100
AcDbBlockTableRecord
  2
*D50
  0
BLOCK_RECORD
  5
CE9
330
1
100
AcDbSymbolTableRecord
100
AcDbBlockTableRecord
  2
*D51
  0
BLOCK_RECORD
  5
D0A
330
1
100
AcDbSymbolTableRecord
100
AcDbBlockTableRecord
  2
4642RF
1001
ACAD
1000
DesignCenter Data
1002
{
1070
     1
1070
     4
1002
}
1001
CONTENTBLOCKICON
1071
        0
1004
2800000020000000200000000100080000000000000400000000000000000000000000000000000000000000000080000080000000808000800000008000800080800000C0C0C000C0DCC000F0CAA6000020400000206000002080000020A0000020C0000020E00000400000004020000040400000406000004080000040A0
1004
000040C0000040E00000600000006020000060400000606000006080000060A0000060C0000060E00000800000008020000080400000806000008080000080A0000080C0000080E00000A0000000A0200000A0400000A0600000A0800000A0A00000A0C00000A0E00000C0000000C0200000C0400000C0600000C0800000C0
1004
A00000C0C00000C0E00000E0000000E0200000E0400000E0600000E0800000E0A00000E0C00000E0E00040000000400020004000400040006000400080004000A0004000C0004000E00040200000402020004020400040206000402080004020A0004020C0004020E000404000004040200040404000404060004040800040
1004
40A0004040C0004040E00040600000406020004060400040606000406080004060A0004060C0004060E00040800000408020004080400040806000408080004080A0004080C0004080E00040A0000040A0200040A0400040A0600040A0800040A0A00040A0C00040A0E00040C0000040C0200040C0400040C0600040C08000
1004
40C0A00040C0C00040C0E00040E0000040E0200040E0400040E0600040E0800040E0A00040E0C00040E0E00080000000800020008000400080006000800080008000A0008000C0008000E00080200000802020008020400080206000802080008020A0008020C0008020E00080400000804020008040400080406000804080
1004
008040A0008040C0008040E00080600000806020008060400080606000806080008060A0008060C0008060E00080800000808020008080400080806000808080008080A0008080C0008080E00080A0000080A0200080A0400080A0600080A0800080A0A00080A0C00080A0E00080C0000080C0200080C0400080C0600080C0
1004
800080C0A00080C0C00080C0E00080E0000080E0200080E0400080E0600080E0800080E0A00080E0C00080E0E000C0000000C0002000C0004000C0006000C0008000C000A000C000C000C000E000C0200000C0202000C0204000C0206000C0208000C020A000C020C000C020E000C0400000C0402000C0404000C0406000C0
1004
408000C040A000C040C000C040E000C0600000C0602000C0604000C0606000C0608000C060A000C060C000C060E000C0800000C0802000C0804000C0806000C0808000C080A000C080C000C080E000C0A00000C0A02000C0A04000C0A06000C0A08000C0A0A000C0A0C000C0A0E000C0C00000C0C02000C0C04000C0C06000
1004
C0C08000C0C0A000F0FBFF00A4A0A000808080000000FF0000FF000000FFFF00FF000000FF00FF00FFFF0000FFFFFF00FFFFFFFFFFFFFFFFFFFFFFFFFFFFFFFFFFFFFFFFFFFFFFFFFFFFFFFFFFFFFFFFFFFFFFFFFFFFFFFFFFFFFFFFFF000000000000FFFFFFFFFFFFFFFFFFFFFFFFFFFFFFFFFFFFFFFFFFFFFFFFFFFF00FF
1004
0000FF00FFFFFFFFFFFFFFFFFFFFFFFFFFFFFFFFFFFFFFFFFFFFFFFFFFFF000000000000FFFFFFFFFFFFFFFFFFFFFFFFFFFFFFFFFFFFFFFFFFFFFFFFFFFF00FFFFFFFF00FFFFFFFFFFFFFFFFFFFFFFFFFFFFFFFFFFFFFFFFFFFFFFFFFFFF000000000000FFFFFFFFFFFFFFFFFFFFFFFFFFFFFFFFFFFFFFFFFFFFFFFFFFFF00
1004
0000000000FFFFFFFFFFFFFFFFFFFFFFFFFFFFFFFFFFFFFFFFFFFFFFFFFFFF00FFFFFFFF00FFFFFFFFFFFFFFFFFFFFFFFFFFFFFFFFFFFFFFFFFFFFFFFFFFFF000000000000FFFFFFFFFFFFFFFFFFFFFFFFFFFFFFFFFFFFFFFFFFFFFFFFFFFF000000000000FFFFFFFFFFFFFFFFFFFFFFFFFFFFFFFFFFFFFFFFFFFFFFFFFFFF
1004
00FF0000FF00FFFFFFFFFFFFFFFFFFFFFFFFFFFFFFFFFFFFFFFFFFFFFFFFFFFF00FF0000FF00FFFFFFFFFFFFFFFFFFFFFFFFFFFFFFFFFFFFFFFFFFFFFFFFFFFF00FF0000FF00FFFFFFFFFFFFFFFFFFFFFFFFFFFFFFFFFFFFFFFFFFFFFFFFFFFF00FF0000FF00FFFFFFFFFFFFFFFFFFFFFFFFFFFFFFFFFFFFFFFFFFFFFFFFFF
1004
FF00FF00000000FFFFFFFFFFFFFFFFFFFFFFFFFFFFFFFFFFFFFFFFFFFFFFFFFFFF00FF0000FF00FFFFFFFFFFFFFFFFFFFFFFFFFFFFFFFFFFFFFFFFFFFFFFFFFFFF00FF0000FF00FFFFFFFFFFFFFFFFFFFFFFFFFFFFFFFFFFFFFFFFFFFFFFFFFFFF00FF00000000FFFFFFFFFFFFFFFFFFFFFFFFFFFFFFFFFFFFFFFFFFFFFFFF
1004
FFFF00FF0000FF00FFFFFFFFFFFFFFFFFFFFFFFFFFFFFFFFFFFFFFFFFFFFFFFFFFFF00FF0000FF00FFFFFFFFFFFFFFFFFFFFFFFFFFFFFFFFFFFFFFFFFFFFFFFFFFFF000000000000FFFFFFFFFFFFFFFFFFFFFFFFFFFFFFFFFFFFFFFFFFFFFFFFFFFF000000000000FFFFFFFFFFFFFFFFFFFFFFFFFFFFFFFFFFFFFFFFFFFFFF
1004
FFFFFF00FFFFFFFF00FFFFFFFFFFFFFFFFFFFFFFFFFFFFFFFFFFFFFFFFFFFFFFFFFFFF00FFFFFFFF00FFFFFFFFFFFFFFFFFFFFFFFFFFFFFFFFFFFFFFFFFFFFFFFFFFFF00A4A4A4A400FFFFFFFFFFFFFFFFFFFFFFFFFFFFFFFFFFFFFFFFFFFFFFFFFFFF00A4A4A4A400FFFFFFFFFFFFFFFFFFFFFFFFFFFFFFFFFFFFFFFFFFFF
1004
FFFFFFFF00FFFFFFFF00FFFFFFFFFFFFFFFFFFFFFFFFFFFFFFFFFFFFFFFFFFFFFFFFFFFF000000000000FFFFFFFFFFFFFFFFFFFFFFFFFFFFFFFFFFFFFFFFFFFFFFFFFFFF000000000000FFFFFFFFFFFFFFFFFFFFFFFFFFFFFFFFFFFFFFFFFFFFFFFFFFFF00FF0000FF00FFFFFFFFFFFFFFFFFFFFFFFFFFFFFFFFFFFFFFFFFF
1004
FFFFFFFFFF000000000000FFFFFFFFFFFFFFFFFFFFFFFFFFFFFFFFFFFFFFFFFFFFFFFFFFFFFFFFFFFFFFFFFFFFFFFFFFFFFFFFFFFFFFFFFF
  0
BLOCK_RECORD
  5
D31
330
1
100
AcDbSymbolTableRecord
100
AcDbBlockTableRecord
  2
4642RR
1001
ACAD
1000
DesignCenter Data
1002
{
1070
     1
1070
     4
1002
}
1001
CONTENTBLOCKICON
1071
        0
1004
2800000020000000200000000100080000000000000400000000000000000000000000000000000000000000000080000080000000808000800000008000800080800000C0C0C000C0DCC000F0CAA6000020400000206000002080000020A0000020C0000020E00000400000004020000040400000406000004080000040A0
1004
000040C0000040E00000600000006020000060400000606000006080000060A0000060C0000060E00000800000008020000080400000806000008080000080A0000080C0000080E00000A0000000A0200000A0400000A0600000A0800000A0A00000A0C00000A0E00000C0000000C0200000C0400000C0600000C0800000C0
1004
A00000C0C00000C0E00000E0000000E0200000E0400000E0600000E0800000E0A00000E0C00000E0E00040000000400020004000400040006000400080004000A0004000C0004000E00040200000402020004020400040206000402080004020A0004020C0004020E000404000004040200040404000404060004040800040
1004
40A0004040C0004040E00040600000406020004060400040606000406080004060A0004060C0004060E00040800000408020004080400040806000408080004080A0004080C0004080E00040A0000040A0200040A0400040A0600040A0800040A0A00040A0C00040A0E00040C0000040C0200040C0400040C0600040C08000
1004
40C0A00040C0C00040C0E00040E0000040E0200040E0400040E0600040E0800040E0A00040E0C00040E0E00080000000800020008000400080006000800080008000A0008000C0008000E00080200000802020008020400080206000802080008020A0008020C0008020E00080400000804020008040400080406000804080
1004
008040A0008040C0008040E00080600000806020008060400080606000806080008060A0008060C0008060E00080800000808020008080400080806000808080008080A0008080C0008080E00080A0000080A0200080A0400080A0600080A0800080A0A00080A0C00080A0E00080C0000080C0200080C0400080C0600080C0
1004
800080C0A00080C0C00080C0E00080E0000080E0200080E0400080E0600080E0800080E0A00080E0C00080E0E000C0000000C0002000C0004000C0006000C0008000C000A000C000C000C000E000C0200000C0202000C0204000C0206000C0208000C020A000C020C000C020E000C0400000C0402000C0404000C0406000C0
1004
408000C040A000C040C000C040E000C0600000C0602000C0604000C0606000C0608000C060A000C060C000C060E000C0800000C0802000C0804000C0806000C0808000C080A000C080C000C080E000C0A00000C0A02000C0A04000C0A06000C0A08000C0A0A000C0A0C000C0A0E000C0C00000C0C02000C0C04000C0C06000
1004
C0C08000C0C0A000F0FBFF00A4A0A000808080000000FF0000FF000000FFFF00FF000000FF00FF00FFFF0000FFFFFF00FFFFFFFFFFFFFFFFFFFFFFFFFFFFFFFFFFFFFFFFFFFFFFFFFFFFFFFFFFFFFFFFFFFFFFFFFFFFFFFFFFFFFFFFFF000000000000FFFFFFFFFFFFFFFFFFFFFFFFFFFFFFFFFFFFFFFFFFFFFFFFFFFF00FF
1004
0000FF00FFFFFFFFFFFFFFFFFFFFFFFFFFFFFFFFFFFFFFFFFFFFFFFFFFFF00FFFFFFFF00FFFFFFFFFFFFFFFFFFFFFFFFFFFFFFFFFFFFFFFFFFFFFFFFFFFF00FFFFFFFF00FFFFFFFFFFFFFFFFFFFFFFFFFFFFFFFFFFFFFFFFFFFFFFFFFFFF00FFFF000000FFFFFFFFFFFFFFFFFFFFFFFFFFFFFFFFFFFFFFFFFFFFFFFFFFFF00
1004
FFFF000000FFFFFFFFFFFFFFFFFFFFFFFFFFFFFFFFFFFFFFFFFFFFFFFFFFFF00FF00000000FFFFFFFFFFFFFFFFFFFFFFFFFFFFFFFFFFFFFFFFFFFFFFFFFFFF00FF00000000FFFFFFFFFFFFFFFFFFFFFFFFFFFFFFFFFFFFFFFFFFFFFFFFFFFF00FF00000000FFFFFFFFFFFFFFFFFFFFFFFFFFFFFFFFFFFFFFFFFFFFFFFFFFFF
1004
000000000000FFFFFFFFFFFFFFFFFFFFFFFFFFFFFFFFFFFFFFFFFFFFFFFFFFFF00FF00000000FFFFFFFFFFFFFFFFFFFFFFFFFFFFFFFFFFFFFFFFFFFFFFFFFFFF000000000000FFFFFFFFFFFFFFFFFFFFFFFFFFFFFFFFFFFFFFFFFFFFFFFFFFFF000000000000FFFFFFFFFFFFFFFFFFFFFFFFFFFFFFFFFFFFFFFFFFFFFFFFFF
1004
FF000000000000FFFFFFFFFFFFFFFFFFFFFFFFFFFFFFFFFFFFFFFFFFFFFFFFFFFF00FFFF000000FFFFFFFFFFFFFFFFFFFFFFFFFFFFFFFFFFFFFFFFFFFFFFFFFFFF00FFFF000000FFFFFFFFFFFFFFFFFFFFFFFFFFFFFFFFFFFFFFFFFFFFFFFFFFFF00FFFF000000FFFFFFFFFFFFFFFFFFFFFFFFFFFFFFFFFFFFFFFFFFFFFFFF
1004
FFFF00FFFF000000FFFFFFFFFFFFFFFFFFFFFFFFFFFFFFFFFFFFFFFFFFFFFFFFFFFF00FFFF000000FFFFFFFFFFFFFFFFFFFFFFFFFFFFFFFFFFFFFFFFFFFFFFFFFFFF00FFFF000000FFFFFFFFFFFFFFFFFFFFFFFFFFFFFFFFFFFFFFFFFFFFFFFFFFFF000000000000FFFFFFFFFFFFFFFFFFFFFFFFFFFFFFFFFFFFFFFFFFFFFF
1004
FFFFFF000000000000FFFFFFFFFFFFFFFFFFFFFFFFFFFFFFFFFFFFFFFFFFFFFFFFFFFF000000000000FFFFFFFFFFFFFFFFFFFFFFFFFFFFFFFFFFFFFFFFFFFFFFFFFFFF000000000000FFFFFFFFFFFFFFFFFFFFFFFFFFFFFFFFFFFFFFFFFFFFFFFFFFFF00FFFF000000FFFFFFFFFFFFFFFFFFFFFFFFFFFFFFFFFFFFFFFFFFFF
1004
FFFFFFFF00FFFF000000FFFFFFFFFFFFFFFFFFFFFFFFFFFFFFFFFFFFFFFFFFFFFFFFFFFF00FFFFFFFF00FFFFFFFFFFFFFFFFFFFFFFFFFFFFFFFFFFFFFFFFFFFFFFFFFFFF00FFFFFFFF00FFFFFFFFFFFFFFFFFFFFFFFFFFFFFFFFFFFFFFFFFFFFFFFFFFFF00FF0000FF00FFFFFFFFFFFFFFFFFFFFFFFFFFFFFFFFFFFFFFFFFF
1004
FFFFFFFFFF000000000000FFFFFFFFFFFFFFFFFFFFFFFFFFFFFFFFFFFFFFFFFFFFFFFFFFFFFFFFFFFFFFFFFFFFFFFFFFFFFFFFFFFFFFFFFF
  0
ENDTAB
  0
ENDSEC
  0
SECTION
  2
BLOCKS
  0
BLOCK
  5
20
330
1F
100
AcDbEntity
  8
0
100
AcDbBlockBegin
  2
*MODEL_SPACE
 70
     0
 10
0.0
 20
0.0
 30
0.0
  3
*MODEL_SPACE
  1

  0
ENDBLK
  5
21
330
1F
100
AcDbEntity
  8
0
100
AcDbBlockEnd
  0
BLOCK
  5
1C
330
1B
100
AcDbEntity
 67
     1
  8
0
100
AcDbBlockBegin
  2
*PAPER_SPACE
 70
     0
 10
0.0
 20
0.0
 30
0.0
  3
*PAPER_SPACE
  1

  0
ENDBLK
  5
1D
330
1B
100
AcDbEntity
 67
     1
  8
0
100
AcDbBlockEnd
  0
BLOCK
  5
37
330
2B
100
AcDbEntity
  8
0
100
AcDbBlockBegin
  2
CONN2PP
 70
     0
 10
0.0
 20
0.0
 30
0.0
  3
CONN2PP
  1

  0
LINE
  5
2C
330
2B
100
AcDbEntity
  8
IFS_FIBER_OPTICS
100
AcDbLine
 10
5.5267952523269
 20
0.6431137898109789
 30
0.0
 11
5.8867952523269
 21
0.6431137898109789
 31
0.0
  0
LINE
  5
2D
330
2B
100
AcDbEntity
  8
IFS_FIBER_OPTICS
100
AcDbLine
 10
5.8867952523269
 20
1.043113789810979
 30
0.0
 11
5.5267952523269
 21
1.043113789810979
 31
0.0
  0
LINE
  5
2E
330
2B
100
AcDbEntity
  8
IFS_FIBER_OPTICS
100
AcDbLine
 10
5.701111325003729
 20
0.676874937564393
 30
0.0
 11
5.812500277325071
 21
0.7711636716735413
 31
0.0
  0
CIRCLE
  5
2F
330
2B
100
AcDbEntity
  8
IFS_FIBER_OPTICS
100
AcDbCircle
 10
5.745605271229694
 20
0.7372511642537205
 30
0.0
 40
0.075
  0
LINE
  5
30
330
2B
100
AcDbEntity
  8
IFS_FIBER_OPTICS
100
AcDbLine
 10
5.78724417263783
 20
0.7996306632058881
 30
0.0
 11
5.678169229395171
 21
0.7044276930525735
 31
0.0
  0
LINE
  5
31
330
2B
100
AcDbEntity
  8
IFS_FIBER_OPTICS
100
AcDbLine
 10
5.5267952523269
 20
1.043113789810979
 30
0.0
 11
5.5267952523269
 21
0.6431137898109789
 31
0.0
  0
LINE
  5
32
330
2B
100
AcDbEntity
  8
IFS_FIBER_OPTICS
100
AcDbLine
 10
5.745605271229694
 20
0.7372511642537205
 30
0.0
 11
5.745605271229694
 21
0.7372511642537205
 31
0.0
  0
LINE
  5
33
330
2B
100
AcDbEntity
  8
IFS_FIBER_OPTICS
100
AcDbLine
 10
5.78724417263783
 20
0.9996306632058882
 30
0.0
 11
5.678169229395171
 21
0.9044276930525736
 31
0.0
  0
CIRCLE
  5
34
330
2B
100
AcDbEntity
  8
IFS_FIBER_OPTICS
100
AcDbCircle
 10
5.745605271229694
 20
0.9372511642537206
 30
0.0
 40
0.075
  0
LINE
  5
35
330
2B
100
AcDbEntity
  8
IFS_FIBER_OPTICS
100
AcDbLine
 10
5.701111325003729
 20
0.8768749375643931
 30
0.0
 11
5.812500277325071
 21
0.9711636716735414
 31
0.0
  0
LINE
  5
36
330
2B
100
AcDbEntity
  8
IFS_FIBER_OPTICS
100
AcDbLine
 10
5.8867952523269
 20
0.6431137898109789
 30
0.0
 11
5.8867952523269
 21
1.043113789810979
 31
0.0
  0
ENDBLK
  5
38
330
2B
100
AcDbEntity
  8
0
100
AcDbBlockEnd
  0
BLOCK
  5
40
330
39
100
AcDbEntity
  8
0
100
AcDbBlockBegin
  2
ST_CONN
 70
     0
 10
0.0
 20
0.0
 30
0.0
  3
ST_CONN
  1

  0
LINE
  5
3A
330
39
100
AcDbEntity
  8
IFS_FIBER_OPTICS
100
AcDbLine
 10
5.595216136690998
 20
3.374462137943528
 30
0.0
 11
6.045216136690998
 21
3.374462137943528
 31
0.0
  0
LINE
  5
3B
330
39
100
AcDbEntity
  8
IFS_FIBER_OPTICS
100
AcDbLine
 10
6.045216136690998
 20
3.644462137943528
 30
0.0
 11
5.595216136690998
 21
3.644462137943528
 31
0.0
  0
LINE
  5
3C
330
39
100
AcDbEntity
  8
IFS_FIBER_OPTICS
100
AcDbLine
 10
5.595216136690998
 20
3.644462137943528
 30
0.0
 11
5.595216136690998
 21
3.374462137943528
 31
0.0
  0
LINE
  5
3D
330
39
100
AcDbEntity
  8
IFS_FIBER_OPTICS
100
AcDbLine
 10
6.045216136690998
 20
3.374462137943528
 30
0.0
 11
6.045216136690998
 21
3.644462137943528
 31
0.0
  0
LWPOLYLINE
  5
3E
330
39
100
AcDbEntity
  8
IFS_FIBER_OPTICS
100
AcDbPolyline
 90
        2
 70
     0
 43
0.005
 10
5.948800464343134
 20
3.355032876764508
 10
5.948800464343134
 20
3.37495236341309
  0
LWPOLYLINE
  5
3F
330
39
100
AcDbEntity
  8
IFS_FIBER_OPTICS
100
AcDbPolyline
 90
        2
 70
     0
 43
0.005
 10
5.948800464343134
 20
3.64463168517311
 10
5.948800464343134
 20
3.664551171821692
  0
ENDBLK
  5
41
330
39
100
AcDbEntity
  8
0
100
AcDbBlockEnd
  0
BLOCK
  5
15D
330
15C
100
AcDbEntity
  8
0
100
AcDbBlockBegin
  2
4641
 70
     0
 10
0.0
 20
0.0
 30
0.0
  3
4641
  1

  0
LINE
  5
B27
330
15C
100
AcDbEntity
  8
0
100
AcDbLine
 10
356.963290466643
 20
83.04438103900301
 30
0.0
 11
356.963290466643
 21
26.65638103900303
 31
0.0
  0
CIRCLE
  5
B28
330
15C
100
AcDbEntity
  8
0
100
AcDbCircle
 10
321.3795611016721
 20
47.85032972573938
 30
0.0
 40
2.794
  0
LINE
  5
B29
330
15C
100
AcDbEntity
  8
0
100
AcDbLine
 10
321.3795611016721
 20
45.56432972573938
 30
0.0
 11
321.3795611016721
 21
50.13632972573939
 31
0.0
  0
CIRCLE
  5
B2A
330
15C
100
AcDbEntity
  8
0
100
AcDbCircle
 10
351.2103837053802
 20
47.85032972573938
 30
0.0
 40
2.794
  0
LINE
  5
B2B
330
15C
100
AcDbEntity
  8
0
100
AcDbLine
 10
351.2103837053802
 20
45.56432972573938
 30
0.0
 11
351.2103837053802
 21
50.13632972573939
 31
0.0
  0
LINE
  5
B2C
330
15C
100
AcDbEntity
  8
0
100
AcDbLine
 10
356.963290466643
 20
83.04438103900301
 30
0.0
 11
356.963290466643
 21
26.65638103900303
 31
0.0
  0
CIRCLE
  5
B2D
330
15C
100
AcDbEntity
  8
0
100
AcDbCircle
 10
321.3795611016721
 20
47.85032972573938
 30
0.0
 40
2.794
  0
LINE
  5
B2E
330
15C
100
AcDbEntity
  8
0
100
AcDbLine
 10
321.3795611016721
 20
45.56432972573938
 30
0.0
 11
321.3795611016721
 21
50.13632972573939
 31
0.0
  0
CIRCLE
  5
B2F
330
15C
100
AcDbEntity
  8
0
100
AcDbCircle
 10
351.2103837053802
 20
47.85032972573938
 30
0.0
 40
2.794
  0
LINE
  5
B30
330
15C
100
AcDbEntity
  8
0
100
AcDbLine
 10
351.2103837053802
 20
45.56432972573938
 30
0.0
 11
351.2103837053802
 21
50.13632972573939
 31
0.0
  0
LINE
  5
B31
330
15C
100
AcDbEntity
  8
0
100
AcDbLine
 10
315.053290466643
 20
83.04438103900304
 30
0.0
 11
315.053290466643
 21
26.65638103900303
 31
0.0
  0
LINE
  5
B32
330
15C
100
AcDbEntity
  8
IFS_FIBER_OPTICS
100
AcDbLine
 10
315.053290466643
 20
42.404381039003
 30
0.0
 11
356.963290466643
 21
42.404381039003
 31
0.0
  0
LINE
  5
B33
330
15C
100
AcDbEntity
  8
IFS_FIBER_OPTICS
100
AcDbLine
 10
315.053290466643
 20
42.404381039003
 30
0.0
 11
356.963290466643
 21
42.404381039003
 31
0.0
  0
LINE
  5
B34
330
15C
100
AcDbEntity
  8
0
100
AcDbLine
 10
315.053290466643
 20
26.65638103900303
 30
0.0
 11
356.963290466643
 21
26.65638103900303
 31
0.0
  0
CIRCLE
  5
B35
330
15C
100
AcDbEntity
  8
IFS_FIBER_OPTICS
100
AcDbCircle
 10
320.768290466643
 20
32.24438103900303
 30
0.0
 40
2.285999999999999
  0
CIRCLE
  5
B36
330
15C
100
AcDbEntity
  8
IFS_FIBER_OPTICS
100
AcDbCircle
 10
320.768290466643
 20
32.24438103900303
 30
0.0
 40
2.285999999999999
  0
ARC
  5
B37
330
15C
100
AcDbEntity
  8
IFS_FIBER_OPTICS
100
AcDbCircle
 10
323.308290466643
 20
42.40438103900302
 30
0.0
 40
1.580502082988399
100
AcDbArc
 50
180.0
 51
0.0
  0
ARC
  5
B38
330
15C
100
AcDbEntity
  8
IFS_FIBER_OPTICS
100
AcDbCircle
 10
323.308290466643
 20
42.40438103900302
 30
0.0
 40
1.580502082988399
100
AcDbArc
 50
180.0
 51
0.0
  0
LINE
  5
B39
330
15C
100
AcDbEntity
  8
IFS_FIBER_OPTICS
100
AcDbLine
 10
324.8887925496313
 20
42.404381039003
 30
0.0
 11
321.7277883836545
 21
42.404381039003
 31
0.0
  0
LINE
  5
B3A
330
15C
100
AcDbEntity
  8
IFS_FIBER_OPTICS
100
AcDbLine
 10
324.8887925496313
 20
42.404381039003
 30
0.0
 11
321.7277883836545
 21
42.404381039003
 31
0.0
  0
CIRCLE
  5
B3B
330
15C
100
AcDbEntity
  8
IFS_FIBER_OPTICS
100
AcDbCircle
 10
351.248290466643
 20
32.24438103900303
 30
0.0
 40
2.285999999999999
  0
CIRCLE
  5
B3C
330
15C
100
AcDbEntity
  8
IFS_FIBER_OPTICS
100
AcDbCircle
 10
351.248290466643
 20
32.24438103900303
 30
0.0
 40
2.285999999999999
  0
INSERT
  5
B3D
330
15C
100
AcDbEntity
  8
IFS_FIBER_OPTICS
100
AcDbBlockReference
  2
ST_CONN
 10
246.8679521628774
 20
184.5228709109544
 30
0.0
 41
25.4
 42
25.4
 43
25.4
 50
270.0
  0
INSERT
  5
B3E
330
15C
100
AcDbEntity
  8
IFS_FIBER_OPTICS
100
AcDbBlockReference
  2
ST_CONN
 10
246.8679521628774
 20
184.5228709109544
 30
0.0
 41
25.4
 42
25.4
 43
25.4
 50
270.0
  0
HATCH
  5
B3F
330
15C
100
AcDbEntity
  8
VORDERGRUND
 62
   253
100
AcDbHatch
 10
0.0
 20
0.0
 30
0.0
210
0.0
220
0.0
230
1.0
  2
SOLID
 70
     1
 71
     0
 91
        8
 92
        1
 93
        1
 72
     4
 94
        3
 73
     0
 74
     0
 95
       41
 96
       37
 40
0.0
 40
0.0
 40
0.0
 40
0.0
 40
1.0
 40
1.0
 40
1.0
 40
2.0
 40
2.0
 40
2.0
 40
3.0
 40
3.0
 40
3.0
 40
4.0
 40
4.0
 40
4.0
 40
5.0
 40
5.0
 40
5.0
 40
6.0
 40
6.0
 40
6.0
 40
7.0
 40
7.0
 40
7.0
 40
8.0
 40
8.0
 40
8.0
 40
9.0
 40
9.0
 40
9.0
 40
10.0
 40
10.0
 40
10.0
 40
11.0
 40
11.0
 40
11.0
 40
12.0
 40
12.0
 40
12.0
 40
12.0
 10
342.1655442127324
 20
51.90254405851217
 10
342.1655442127324
 20
51.90254405851217
 10
341.3746191910311
 20
51.90254405851217
 10
341.3746191910311
 20
51.90254405851217
 10
341.3746191910311
 20
51.90254405851217
 10
341.3746191910311
 20
53.08562429939758
 10
341.3746191910311
 20
53.08562429939758
 10
341.3746191910311
 20
53.08562429939758
 10
340.4651828846074
 20
53.08562429939758
 10
340.4651828846074
 20
53.08562429939758
 10
340.4651828846074
 20
53.08562429939758
 10
340.4651828846074
 20
51.90254405851217
 10
340.4651828846074
 20
51.90254405851217
 10
340.4651828846074
 20
51.90254405851217
 10
339.6786675851283
 20
51.90254405851217
 10
339.6786675851283
 20
51.90254405851217
 10
339.6786675851283
 20
51.90254405851217
 10
339.6786675851283
 20
54.90236095304341
 10
339.6786675851283
 20
54.90236095304341
 10
339.6786675851283
 20
54.90236095304341
 10
340.4651828846074
 20
54.90236095304341
 10
340.4651828846074
 20
54.90236095304341
 10
340.4651828846074
 20
54.90236095304341
 10
340.4651828846074
 20
53.7990002217066
 10
340.4651828846074
 20
53.7990002217066
 10
340.4651828846074
 20
53.7990002217066
 10
341.3746191910311
 20
53.7990002217066
 10
341.3746191910311
 20
53.7990002217066
 10
341.3746191910311
 20
53.7990002217066
 10
341.3746191910311
 20
54.90236095304341
 10
341.3746191910311
 20
54.90236095304341
 10
341.3746191910311
 20
54.90236095304341
 10
342.1655442127324
 20
54.90236095304341
 10
342.1655442127324
 20
54.90236095304341
 10
342.1655442127324
 20
54.90236095304341
 10
342.1655442127324
 20
51.90254405851217
 10
342.1655442127324
 20
51.90254405851217
 97
        0
 92
        1
 93
        1
 72
     4
 94
        3
 73
     0
 74
     0
 95
       35
 96
       31
 40
0.0
 40
0.0
 40
0.0
 40
0.0
 40
1.0
 40
1.0
 40
1.0
 40
2.0
 40
2.0
 40
2.0
 40
3.0
 40
3.0
 40
3.0
 40
4.0
 40
4.0
 40
4.0
 40
5.0
 40
5.0
 40
5.0
 40
6.0
 40
6.0
 40
6.0
 40
7.0
 40
7.0
 40
7.0
 40
8.0
 40
8.0
 40
8.0
 40
9.0
 40
9.0
 40
9.0
 40
10.0
 40
10.0
 40
10.0
 40
10.0
 10
339.428209143288
 20
52.48300819696703
 10
339.1206999201977
 20
52.03993446649828
 10
338.8350326024893
 20
51.831643993408
 10
338.2419938655102
 20
51.831643993408
 10
337.3982899809616
 20
51.831643993408
 10
336.853482580788
 20
52.5317562980955
 10
336.853482580788
 20
53.42238238316494
 10
336.853482580788
 20
54.268704540283
 10
337.3455800200241
 20
54.97326101814758
 10
338.2507444080449
 20
54.97326101814758
 10
338.7471826675936
 20
54.97326101814758
 10
339.1030610313088
 20
54.77830306458855
 10
339.4062983359963
 20
54.3218623636337
 10
339.4062983359963
 20
54.3218623636337
 10
338.7998926285311
 20
53.91864838793924
 10
338.7998926285311
 20
53.91864838793924
 10
338.6769027196769
 20
54.13138303420661
 10
338.5187039349547
 20
54.2554064717066
 10
338.2550852283574
 20
54.2554064717066
 10
337.9211865738435
 20
54.2554064717066
 10
337.6004481840866
 20
53.95692339878994
 10
337.6004481840866
 20
53.42238238316494
 10
337.6004481840866
 20
52.82331472908508
 10
337.9475071033574
 20
52.54949853984896
 10
338.2770649375588
 20
52.54949853984896
 10
338.5626633533575
 20
52.54949853984896
 10
338.694472706656
 20
52.69126421910243
 10
338.8174626155102
 20
52.89507606806077
 10
338.8174626155102
 20
52.89507606806077
 10
339.428209143288
 20
52.48300819696703
 10
339.428209143288
 20
52.48300819696703
 97
        0
 92
        1
 93
        1
 72
     4
 94
        3
 73
     0
 74
     0
 95
       53
 96
       49
 40
0.0
 40
0.0
 40
0.0
 40
0.0
 40
1.0
 40
1.0
 40
1.0
 40
2.0
 40
2.0
 40
2.0
 40
3.0
 40
3.0
 40
3.0
 40
4.0
 40
4.0
 40
4.0
 40
5.0
 40
5.0
 40
5.0
 40
6.0
 40
6.0
 40
6.0
 40
7.0
 40
7.0
 40
7.0
 40
8.0
 40
8.0
 40
8.0
 40
9.0
 40
9.0
 40
9.0
 40
10.0
 40
10.0
 40
10.0
 40
11.0
 40
11.0
 40
11.0
 40
12.0
 40
12.0
 40
12.0
 40
13.0
 40
13.0
 40
13.0
 40
14.0
 40
14.0
 40
14.0
 40
15.0
 40
15.0
 40
15.0
 40
16.0
 40
16.0
 40
16.0
 40
16.0
 10
336.651324377663
 20
52.81094683628994
 10
336.651324377663
 20
52.15065983542189
 10
336.0538070165519
 20
51.831643993408
 10
335.4914296293991
 20
51.831643993408
 10
334.8410989544859
 20
51.831643993408
 10
334.507200299972
 20
52.07979422127258
 10
334.2435815933748
 20
52.39436589010939
 10
334.2435815933748
 20
52.39436589010939
 10
334.722518767854
 20
52.86410465964064
 10
334.722518767854
 20
52.86410465964064
 10
334.9246080690692
 20
52.60706608542189
 10
335.1882612266213
 20
52.47856402378994
 10
335.4826790868644
 20
52.47856402378994
 10
335.7243180842602
 20
52.47856402378994
 10
335.8868576892949
 20
52.59817773906772
 10
335.8868576892949
 20
52.775462352783
 10
335.8868576892949
 20
52.9660105841198
 10
335.7431972075241
 20
53.02530067743578
 10
335.350800831656
 20
53.10781071432813
 10
335.350800831656
 20
53.10781071432813
 10
335.2453809097811
 20
53.12996267830382
 10
335.2453809097811
 20
53.12996267830382
 10
334.7726449071769
 20
53.22925033021356
 10
334.3841414892081
 20
53.49769217049133
 10
334.3841414892081
 20
54.0338523809948
 10
334.3841414892081
 20
54.62320486580384
 10
334.8630786636873
 20
54.97770519132467
 10
335.4957704497116
 20
54.97770519132467
 10
336.0318962092602
 20
54.97770519132467
 10
336.378955128531
 20
54.74729720521356
 10
336.5898638741907
 20
54.50800087274828
 10
336.5898638741907
 20
54.50800087274828
 10
336.1241558663783
 20
54.04715044957119
 10
336.1241558663783
 20
54.04715044957119
 10
335.9790484445032
 20
54.20224864835592
 10
335.7593891563088
 20
54.32630653681077
 10
335.5089307144686
 20
54.32630653681077
 10
335.3376405668991
 20
54.32630653681077
 10
335.1443362591734
 20
54.24655257630731
 10
335.1443362591734
 20
54.04715044957119
 10
335.1443362591734
 20
53.86549056458855
 10
335.3455642865171
 20
53.79958588793925
 10
335.6011903715866
 20
53.74580794740106
 10
335.6011903715866
 20
53.74580794740106
 10
335.7066791953713
 20
53.72365598342536
 10
335.7066791953713
 20
53.72365598342536
 10
336.1345600547463
 20
53.63384234410244
 10
336.651324377663
 20
53.50210189271355
 10
336.651324377663
 20
52.81094683628994
 97
        0
 92
        1
 93
        1
 72
     4
 94
        3
 73
     0
 74
     0
 95
       17
 96
       13
 40
0.0
 40
0.0
 40
0.0
 40
0.0
 40
1.0
 40
1.0
 40
1.0
 40
2.0
 40
2.0
 40
2.0
 40
3.0
 40
3.0
 40
3.0
 40
4.0
 40
4.0
 40
4.0
 40
4.0
 10
334.1512874853019
 20
53.40464014141147
 10
334.1512874853019
 20
52.52286795174133
 10
333.6459264284442
 20
51.831643993408
 10
332.7716645469338
 20
51.831643993408
 10
331.9016745838262
 20
51.831643993408
 10
331.3920071576109
 20
52.52286795174133
 10
331.3920071576109
 20
53.40464014141147
 10
331.3920071576109
 20
54.28200260885938
 10
331.9016745838262
 20
54.97770519132467
 10
332.771630095979
 20
54.97770519132467
 10
333.6459264284442
 20
54.97770519132467
 10
334.1512874853019
 20
54.28200260885938
 10
334.1512874853019
 20
53.40464014141147
 97
        0
 92
        1
 93
        1
 72
     4
 94
        3
 73
     0
 74
     0
 95
       26
 96
       22
 40
0.0
 40
0.0
 40
0.0
 40
0.0
 40
1.0
 40
1.0
 40
1.0
 40
2.0
 40
2.0
 40
2.0
 40
3.0
 40
3.0
 40
3.0
 40
4.0
 40
4.0
 40
4.0
 40
5.0
 40
5.0
 40
5.0
 40
6.0
 40
6.0
 40
6.0
 40
7.0
 40
7.0
 40
7.0
 40
7.0
 10
331.1943275786179
 20
52.74004677118577
 10
331.1943275786179
 20
52.23485796910245
 10
330.7285851198505
 20
51.90254405851217
 10
330.2583984879061
 20
51.90254405851217
 10
330.2583984879061
 20
51.90254405851217
 10
328.7250209379929
 20
51.90254405851217
 10
328.7250209379929
 20
51.90254405851217
 10
328.7250209379929
 20
51.90254405851217
 10
328.7250209379929
 20
54.90236095304341
 10
328.7250209379929
 20
54.90236095304341
 10
328.7250209379929
 20
54.90236095304341
 10
330.1309988568297
 20
54.90236095304341
 10
330.1309988568297
 20
54.90236095304341
 10
330.6714309857359
 20
54.90236095304341
 10
331.0625182253193
 20
54.63205876120314
 10
331.0625182253193
 20
54.07819075990104
 10
331.0625182253193
 20
53.60404226814758
 10
330.6494857274894
 20
53.46227658889411
 10
330.6494857274894
 20
53.46227658889411
 10
330.6494857274894
 20
53.45779796476216
 10
331.1943275786179
 20
53.3337400763073
 10
331.1943275786179
 20
52.74004677118577
 97
        0
 92
       16
 93
        1
 72
     4
 94
        3
 73
     0
 74
     0
 95
       17
 96
       13
 40
0.0
 40
0.0
 40
0.0
 40
0.0
 40
1.0
 40
1.0
 40
1.0
 40
2.0
 40
2.0
 40
2.0
 40
3.0
 40
3.0
 40
3.0
 40
4.0
 40
4.0
 40
4.0
 40
4.0
 10
333.4131068754928
 20
53.40464014141147
 10
333.4131068754928
 20
53.87434445998787
 10
333.1978573095206
 20
54.2554064717066
 10
332.7716645469338
 20
54.2554064717066
 10
332.3455062353019
 20
54.2554064717066
 10
332.1345630386873
 20
53.87434445998787
 10
332.1345630386873
 20
53.40464014141147
 10
332.1345630386873
 20
52.93056055156772
 10
332.345471784347
 20
52.54949853984896
 10
332.7716645469338
 20
52.54949853984896
 10
333.1978573095206
 20
52.54949853984896
 10
333.4131068754928
 20
52.93056055156772
 10
333.4131068754928
 20
53.40464014141147
 97
        0
 92
       16
 93
        1
 72
     4
 94
        3
 73
     0
 74
     0
 95
       20
 96
       16
 40
0.0
 40
0.0
 40
0.0
 40
0.0
 40
1.0
 40
1.0
 40
1.0
 40
2.0
 40
2.0
 40
2.0
 40
3.0
 40
3.0
 40
3.0
 40
4.0
 40
4.0
 40
4.0
 40
5.0
 40
5.0
 40
5.0
 40
5.0
 10
330.2979481840866
 20
53.99392372431077
 10
330.2979481840866
 20
54.16238889358161
 10
330.1837432687221
 20
54.27759288663716
 10
330.0124186701977
 20
54.27759288663716
 10
330.0124186701977
 20
54.27759288663716
 10
329.463167096847
 20
54.27759288663716
 10
329.463167096847
 20
54.27759288663716
 10
329.463167096847
 20
54.27759288663716
 10
329.463167096847
 20
53.71924626120314
 10
329.463167096847
 20
53.71924626120314
 10
329.463167096847
 20
53.71924626120314
 10
329.9992239544859
 20
53.71924626120314
 10
329.9992239544859
 20
53.71924626120314
 10
330.1925282622116
 20
53.71924626120314
 10
330.2979481840866
 20
53.86101194045661
 10
330.2979481840866
 20
53.99392372431077
 97
        0
 92
       16
 93
        1
 72
     4
 94
        3
 73
     0
 74
     0
 95
       20
 96
       16
 40
0.0
 40
0.0
 40
0.0
 40
0.0
 40
1.0
 40
1.0
 40
1.0
 40
2.0
 40
2.0
 40
2.0
 40
3.0
 40
3.0
 40
3.0
 40
4.0
 40
4.0
 40
4.0
 40
5.0
 40
5.0
 40
5.0
 40
5.0
 10
330.3946520143818
 20
52.82421045391147
 10
330.3946520143818
 20
52.99705089444967
 10
330.2672179323504
 20
53.11663015877257
 10
329.9992239544859
 20
53.11663015877257
 10
329.9992239544859
 20
53.11663015877257
 10
329.463167096847
 20
53.11663015877257
 10
329.463167096847
 20
53.11663015877257
 10
329.463167096847
 20
53.11663015877257
 10
329.463167096847
 20
52.52731212491841
 10
329.463167096847
 20
52.52731212491841
 10
329.463167096847
 20
52.52731212491841
 10
330.0124186701977
 20
52.52731212491841
 10
330.0124186701977
 20
52.52731212491841
 10
330.2364532296595
 20
52.52731212491841
 10
330.3946520143818
 20
52.60706608542189
 10
330.3946520143818
 20
52.82421045391147
 97
        0
 75
     0
 76
     1
 98
        1
 10
328.7250209379929
 20
55.80466591181078
  0
MTEXT
  5
B40
330
15C
100
AcDbEntity
  8
IFS_FIBER_OPTICS
100
AcDbMText
 10
337.0105173419408
 20
78.74825864569436
 30
0.0
 40
2.54
 41
0.0
 71
     5
 72
     5
  1
{\fArial|b0|i0|c0|p34;LTC 4641\PVIDEO TX}
1001
ACAD
1000
MTEXTBEGIN
1070
    73
1070
     1
1070
    44
1040
1.0
1070
    74
1070
     0
1000
MTEXTEND
  0
LINE
  5
B41
330
15C
100
AcDbEntity
  8
IFS_FIBER_OPTICS
100
AcDbLine
 10
340.453290466643
 20
104.634381039003
 30
0.0
 11
326.483290466643
 21
104.634381039003
 31
0.0
  0
LINE
  5
B42
330
15C
100
AcDbEntity
  8
IFS_FIBER_OPTICS
100
AcDbLine
 10
323.943290466643
 20
83.04438103900304
 30
0.0
 11
342.9932904666431
 21
83.04438103900304
 31
0.0
  0
LINE
  5
B43
330
15C
100
AcDbEntity
  8
IFS_FIBER_OPTICS
100
AcDbLine
 10
356.963290466643
 20
83.04438103900301
 30
0.0
 11
315.053290466643
 21
83.04438103900304
 31
0.0
  0
LINE
  5
B44
330
15C
100
AcDbEntity
  8
IFS_FIBER_OPTICS
100
AcDbLine
 10
326.483290466643
 20
102.0943810390029
 30
0.0
 11
340.453290466643
 21
102.0943810390029
 31
0.0
  0
LINE
  5
B45
330
15C
100
AcDbEntity
  8
IFS_FIBER_OPTICS
100
AcDbLine
 10
339.1832904666431
 20
102.0943810390029
 30
0.0
 11
327.753290466643
 21
102.0943810390029
 31
0.0
  0
LINE
  5
B46
330
15C
100
AcDbEntity
  8
IFS_FIBER_OPTICS
100
AcDbLine
 10
327.753290466643
 20
96.50638103900304
 30
0.0
 11
339.1832904666431
 21
96.50638103900298
 31
0.0
  0
LINE
  5
B47
330
15C
100
AcDbEntity
  8
IFS_FIBER_OPTICS
100
AcDbLine
 10
340.707290466643
 20
96.50638103900298
 30
0.0
 11
326.2292904666431
 21
96.50638103900304
 31
0.0
  0
LINE
  5
B48
330
15C
100
AcDbEntity
  8
IFS_FIBER_OPTICS
100
AcDbLine
 10
326.2292904666431
 20
90.15638103900304
 30
0.0
 11
340.707290466643
 21
90.15638103900304
 31
0.0
  0
LINE
  5
B49
330
15C
100
AcDbEntity
  8
IFS_FIBER_OPTICS
100
AcDbLine
 10
338.548290466643
 20
90.15638103900304
 30
0.0
 11
328.388290466643
 21
90.15638103900304
 31
0.0
  0
LINE
  5
B4A
330
15C
100
AcDbEntity
  8
IFS_FIBER_OPTICS
100
AcDbLine
 10
328.388290466643
 20
85.58438103900298
 30
0.0
 11
338.548290466643
 21
85.58438103900298
 31
0.0
  0
LINE
  5
B4B
330
15C
100
AcDbEntity
  8
IFS_FIBER_OPTICS
100
AcDbLine
 10
342.9932904666431
 20
85.58438103900298
 30
0.0
 11
323.943290466643
 21
85.58438103900298
 31
0.0
  0
MTEXT
  5
B4C
330
15C
100
AcDbEntity
  8
IFS_FIBER_OPTICS
100
AcDbMText
 10
337.0105173419408
 20
78.74825864569436
 30
0.0
 40
2.54
 41
0.0
 71
     5
 72
     5
  1
{\fArial|b0|i0|c0|p34;LTC 4641\PVIDEO TX}
1001
ACAD
1000
MTEXTBEGIN
1070
    73
1070
     1
1070
    44
1040
1.0
1070
    74
1070
     0
1000
MTEXTEND
  0
LINE
  5
B4D
330
15C
100
AcDbEntity
  8
IFS_FIBER_OPTICS
100
AcDbLine
 10
340.453290466643
 20
104.634381039003
 30
0.0
 11
326.483290466643
 21
104.634381039003
 31
0.0
  0
LINE
  5
B4E
330
15C
100
AcDbEntity
  8
IFS_FIBER_OPTICS
100
AcDbLine
 10
323.943290466643
 20
83.04438103900304
 30
0.0
 11
342.9932904666431
 21
83.04438103900304
 31
0.0
  0
LINE
  5
B4F
330
15C
100
AcDbEntity
  8
IFS_FIBER_OPTICS
100
AcDbLine
 10
356.963290466643
 20
83.04438103900301
 30
0.0
 11
315.053290466643
 21
83.04438103900304
 31
0.0
  0
LINE
  5
B50
330
15C
100
AcDbEntity
  8
IFS_FIBER_OPTICS
100
AcDbLine
 10
326.483290466643
 20
102.0943810390029
 30
0.0
 11
340.453290466643
 21
102.0943810390029
 31
0.0
  0
LINE
  5
B51
330
15C
100
AcDbEntity
  8
IFS_FIBER_OPTICS
100
AcDbLine
 10
339.1832904666431
 20
102.0943810390029
 30
0.0
 11
327.753290466643
 21
102.0943810390029
 31
0.0
  0
LINE
  5
B52
330
15C
100
AcDbEntity
  8
IFS_FIBER_OPTICS
100
AcDbLine
 10
327.753290466643
 20
96.50638103900304
 30
0.0
 11
339.1832904666431
 21
96.50638103900298
 31
0.0
  0
LINE
  5
B53
330
15C
100
AcDbEntity
  8
IFS_FIBER_OPTICS
100
AcDbLine
 10
340.707290466643
 20
96.50638103900298
 30
0.0
 11
326.2292904666431
 21
96.50638103900304
 31
0.0
  0
LINE
  5
B54
330
15C
100
AcDbEntity
  8
IFS_FIBER_OPTICS
100
AcDbLine
 10
326.2292904666431
 20
90.15638103900304
 30
0.0
 11
340.707290466643
 21
90.15638103900304
 31
0.0
  0
LINE
  5
B55
330
15C
100
AcDbEntity
  8
IFS_FIBER_OPTICS
100
AcDbLine
 10
338.548290466643
 20
90.15638103900304
 30
0.0
 11
328.388290466643
 21
90.15638103900304
 31
0.0
  0
LINE
  5
B56
330
15C
100
AcDbEntity
  8
IFS_FIBER_OPTICS
100
AcDbLine
 10
328.388290466643
 20
85.58438103900298
 30
0.0
 11
338.548290466643
 21
85.58438103900298
 31
0.0
  0
LINE
  5
B57
330
15C
100
AcDbEntity
  8
IFS_FIBER_OPTICS
100
AcDbLine
 10
342.9932904666431
 20
85.58438103900298
 30
0.0
 11
323.943290466643
 21
85.58438103900298
 31
0.0
  0
LINE
  5
B58
330
15C
100
AcDbEntity
  8
0
100
AcDbLine
 10
321.3795611016721
 20
75.36814783267371
 30
0.0
 11
321.3795611016721
 21
79.94014783267371
 31
0.0
  0
CIRCLE
  5
B59
330
15C
100
AcDbEntity
  8
0
100
AcDbCircle
 10
321.3795611016721
 20
77.65414783267371
 30
0.0
 40
2.794
  0
LINE
  5
B5A
330
15C
100
AcDbEntity
  8
0
100
AcDbLine
 10
321.3795611016721
 20
75.36814783267371
 30
0.0
 11
321.3795611016721
 21
79.94014783267371
 31
0.0
  0
CIRCLE
  5
B5B
330
15C
100
AcDbEntity
  8
0
100
AcDbCircle
 10
321.3795611016721
 20
77.65414783267371
 30
0.0
 40
2.794
  0
LINE
  5
B5C
330
15C
100
AcDbEntity
  8
0
100
AcDbLine
 10
319.093561101672
 20
47.85032972573938
 30
0.0
 11
323.6655611016721
 21
47.85032972573938
 31
0.0
  0
LINE
  5
B5D
330
15C
100
AcDbEntity
  8
0
100
AcDbLine
 10
319.093561101672
 20
47.85032972573938
 30
0.0
 11
323.6655611016721
 21
47.85032972573938
 31
0.0
  0
LINE
  5
B5E
330
15C
100
AcDbEntity
  8
IFS_FIBER_OPTICS
100
AcDbLine
 10
329.1113633570209
 20
95.998381039003
 30
0.0
 11
329.1113633570209
 21
90.66438103900301
 31
0.0
  0
LINE
  5
B5F
330
15C
100
AcDbEntity
  8
IFS_FIBER_OPTICS
100
AcDbLine
 10
328.603363357021
 20
95.998381039003
 30
0.0
 11
328.603363357021
 21
90.66438103900301
 31
0.0
  0
LINE
  5
B60
330
15C
100
AcDbEntity
  8
IFS_FIBER_OPTICS
100
AcDbLine
 10
328.095363357021
 20
95.998381039003
 30
0.0
 11
328.095363357021
 21
90.66438103900301
 31
0.0
  0
LINE
  5
B61
330
15C
100
AcDbEntity
  8
IFS_FIBER_OPTICS
100
AcDbLine
 10
327.5873633570209
 20
95.998381039003
 30
0.0
 11
327.5873633570209
 21
90.66438103900301
 31
0.0
  0
LINE
  5
B62
330
15C
100
AcDbEntity
  8
IFS_FIBER_OPTICS
100
AcDbLine
 10
327.079363357021
 20
95.998381039003
 30
0.0
 11
327.079363357021
 21
90.66438103900301
 31
0.0
  0
LINE
  5
B63
330
15C
100
AcDbEntity
  8
IFS_FIBER_OPTICS
100
AcDbLine
 10
326.571363357021
 20
95.998381039003
 30
0.0
 11
326.571363357021
 21
90.66438103900301
 31
0.0
  0
LINE
  5
B64
330
15C
100
AcDbEntity
  8
IFS_FIBER_OPTICS
100
AcDbLine
 10
326.2292904666431
 20
96.50638103900304
 30
0.0
 11
326.2292904666431
 21
90.15638103900304
 31
0.0
  0
LINE
  5
B65
330
15C
100
AcDbEntity
  8
IFS_FIBER_OPTICS
100
AcDbLine
 10
329.1113633570209
 20
95.998381039003
 30
0.0
 11
329.1113633570209
 21
90.66438103900301
 31
0.0
  0
LINE
  5
B66
330
15C
100
AcDbEntity
  8
IFS_FIBER_OPTICS
100
AcDbLine
 10
328.603363357021
 20
95.998381039003
 30
0.0
 11
328.603363357021
 21
90.66438103900301
 31
0.0
  0
LINE
  5
B67
330
15C
100
AcDbEntity
  8
IFS_FIBER_OPTICS
100
AcDbLine
 10
328.095363357021
 20
95.998381039003
 30
0.0
 11
328.095363357021
 21
90.66438103900301
 31
0.0
  0
LINE
  5
B68
330
15C
100
AcDbEntity
  8
IFS_FIBER_OPTICS
100
AcDbLine
 10
327.5873633570209
 20
95.998381039003
 30
0.0
 11
327.5873633570209
 21
90.66438103900301
 31
0.0
  0
LINE
  5
B69
330
15C
100
AcDbEntity
  8
IFS_FIBER_OPTICS
100
AcDbLine
 10
327.079363357021
 20
95.998381039003
 30
0.0
 11
327.079363357021
 21
90.66438103900301
 31
0.0
  0
LINE
  5
B6A
330
15C
100
AcDbEntity
  8
IFS_FIBER_OPTICS
100
AcDbLine
 10
326.571363357021
 20
95.998381039003
 30
0.0
 11
326.571363357021
 21
90.66438103900301
 31
0.0
  0
LINE
  5
B6B
330
15C
100
AcDbEntity
  8
IFS_FIBER_OPTICS
100
AcDbLine
 10
326.2292904666431
 20
96.50638103900304
 30
0.0
 11
326.2292904666431
 21
90.15638103900304
 31
0.0
  0
LINE
  5
B6C
330
15C
100
AcDbEntity
  8
IFS_FIBER_OPTICS
100
AcDbLine
 10
323.943290466643
 20
85.58438103900298
 30
0.0
 11
323.943290466643
 21
83.04438103900304
 31
0.0
  0
LINE
  5
B6D
330
15C
100
AcDbEntity
  8
IFS_FIBER_OPTICS
100
AcDbLine
 10
323.943290466643
 20
85.58438103900298
 30
0.0
 11
323.943290466643
 21
83.04438103900304
 31
0.0
  0
LINE
  5
B6E
330
15C
100
AcDbEntity
  8
0
100
AcDbLine
 10
319.093561101672
 20
77.65414783267371
 30
0.0
 11
323.6655611016721
 21
77.65414783267371
 31
0.0
  0
LINE
  5
B6F
330
15C
100
AcDbEntity
  8
0
100
AcDbLine
 10
319.093561101672
 20
77.65414783267371
 30
0.0
 11
323.6655611016721
 21
77.65414783267371
 31
0.0
  0
LINE
  5
B70
330
15C
100
AcDbEntity
  8
IFS_FIBER_OPTICS
100
AcDbLine
 10
328.388290466643
 20
90.15638103900304
 30
0.0
 11
328.388290466643
 21
85.58438103900298
 31
0.0
  0
LINE
  5
B71
330
15C
100
AcDbEntity
  8
IFS_FIBER_OPTICS
100
AcDbLine
 10
328.388290466643
 20
90.15638103900304
 30
0.0
 11
328.388290466643
 21
85.58438103900298
 31
0.0
  0
LINE
  5
B72
330
15C
100
AcDbEntity
  8
IFS_FIBER_OPTICS
100
AcDbLine
 10
327.753290466643
 20
102.0943810390029
 30
0.0
 11
327.753290466643
 21
96.50638103900304
 31
0.0
  0
LINE
  5
B73
330
15C
100
AcDbEntity
  8
IFS_FIBER_OPTICS
100
AcDbLine
 10
327.753290466643
 20
102.0943810390029
 30
0.0
 11
327.753290466643
 21
96.50638103900304
 31
0.0
  0
LINE
  5
B74
330
15C
100
AcDbEntity
  8
IFS_FIBER_OPTICS
100
AcDbLine
 10
326.483290466643
 20
104.634381039003
 30
0.0
 11
326.483290466643
 21
102.0943810390029
 31
0.0
  0
LINE
  5
B75
330
15C
100
AcDbEntity
  8
IFS_FIBER_OPTICS
100
AcDbLine
 10
326.483290466643
 20
104.634381039003
 30
0.0
 11
326.483290466643
 21
102.0943810390029
 31
0.0
  0
LINE
  5
B76
330
15C
100
AcDbEntity
  8
0
100
AcDbLine
 10
351.2103837053804
 20
75.36814783267371
 30
0.0
 11
351.2103837053804
 21
79.94014783267371
 31
0.0
  0
CIRCLE
  5
B77
330
15C
100
AcDbEntity
  8
0
100
AcDbCircle
 10
351.2103837053804
 20
77.65414783267371
 30
0.0
 40
2.794
  0
LINE
  5
B78
330
15C
100
AcDbEntity
  8
0
100
AcDbLine
 10
351.2103837053804
 20
75.36814783267371
 30
0.0
 11
351.2103837053804
 21
79.94014783267371
 31
0.0
  0
CIRCLE
  5
B79
330
15C
100
AcDbEntity
  8
0
100
AcDbCircle
 10
351.2103837053804
 20
77.65414783267371
 30
0.0
 40
2.794
  0
LINE
  5
B7A
330
15C
100
AcDbEntity
  8
0
100
AcDbLine
 10
366.083858114178
 20
69.74701267724256
 30
0.0
 11
357.2983066857289
 21
69.74701267724256
 31
0.0
  0
LINE
  5
B7B
330
15C
100
AcDbEntity
  8
IFS_FIBER_OPTICS
100
AcDbLine
 10
356.939858114178
 20
54.33644150953393
 30
0.0
 11
366.083858114178
 21
54.33644150953393
 31
0.0
  0
CIRCLE
  5
B7C
330
15C
100
AcDbEntity
  8
IFS_FIBER_OPTICS
100
AcDbCircle
 10
362.497632594309
 20
56.72753082037957
 30
0.0
 40
1.904999999999999
  0
CIRCLE
  5
B7D
330
15C
100
AcDbEntity
  8
IFS_FIBER_OPTICS
100
AcDbCircle
 10
362.497632594309
 20
61.80753082037961
 30
0.0
 40
1.904999999999999
  0
CIRCLE
  5
B7E
330
15C
100
AcDbEntity
  8
IFS_FIBER_OPTICS
100
AcDbCircle
 10
362.497632594309
 20
66.97758087299831
 30
0.0
 40
1.904999999999999
  0
LINE
  5
B7F
330
15C
100
AcDbEntity
  8
0
100
AcDbLine
 10
366.083858114178
 20
69.74701267724256
 30
0.0
 11
357.2983066857289
 21
69.74701267724256
 31
0.0
  0
LINE
  5
B80
330
15C
100
AcDbEntity
  8
IFS_FIBER_OPTICS
100
AcDbLine
 10
356.939858114178
 20
54.33644150953393
 30
0.0
 11
366.083858114178
 21
54.33644150953393
 31
0.0
  0
CIRCLE
  5
B81
330
15C
100
AcDbEntity
  8
IFS_FIBER_OPTICS
100
AcDbCircle
 10
362.497632594309
 20
56.72753082037957
 30
0.0
 40
1.904999999999999
  0
CIRCLE
  5
B82
330
15C
100
AcDbEntity
  8
IFS_FIBER_OPTICS
100
AcDbCircle
 10
362.497632594309
 20
61.80753082037961
 30
0.0
 40
1.904999999999999
  0
CIRCLE
  5
B83
330
15C
100
AcDbEntity
  8
IFS_FIBER_OPTICS
100
AcDbCircle
 10
362.497632594309
 20
66.97758087299831
 30
0.0
 40
1.904999999999999
  0
LINE
  5
B84
330
15C
100
AcDbEntity
  8
IFS_FIBER_OPTICS
100
AcDbLine
 10
363.5552606900756
 20
63.39197009376462
 30
0.0
 11
360.7847571317121
 21
60.97381465187044
 31
0.0
  0
LINE
  5
B85
330
15C
100
AcDbEntity
  8
IFS_FIBER_OPTICS
100
AcDbLine
 10
361.3674863601695
 20
60.27397466247066
 30
0.0
 11
364.1967657491316
 21
62.66890850884306
 31
0.0
  0
MTEXT
  5
B86
330
15C
100
AcDbEntity
  8
IFS_FIBER_OPTICS
100
AcDbMText
 10
333.3232304548761
 20
61.25467671289129
 30
0.0
 40
2.54
 41
0.0
 71
     4
 72
     5
  1
{\fArial|b0|i0|c0|p34;          NC      3\P+9 - 12VDC  2\P           GND  1}
1001
ACAD
1000
MTEXTBEGIN
1070
    73
1070
     1
1070
    44
1040
1.0
1070
    74
1070
     0
1000
MTEXTEND
  0
LINE
  5
B87
330
15C
100
AcDbEntity
  8
IFS_FIBER_OPTICS
100
AcDbLine
 10
356.939858114178
 20
64.49644150953395
 30
0.0
 11
356.939858114178
 21
54.33644150953393
 31
0.0
  0
LINE
  5
B88
330
15C
100
AcDbEntity
  8
IFS_FIBER_OPTICS
100
AcDbLine
 10
363.5552606900756
 20
63.39197009376462
 30
0.0
 11
360.7847571317121
 21
60.97381465187044
 31
0.0
  0
LINE
  5
B89
330
15C
100
AcDbEntity
  8
IFS_FIBER_OPTICS
100
AcDbLine
 10
361.3674863601695
 20
60.27397466247066
 30
0.0
 11
364.1967657491316
 21
62.66890850884306
 31
0.0
  0
MTEXT
  5
B8A
330
15C
100
AcDbEntity
  8
IFS_FIBER_OPTICS
100
AcDbMText
 10
333.3232304548761
 20
61.25467671289129
 30
0.0
 40
2.54
 41
0.0
 71
     4
 72
     5
  1
{\fArial|b0|i0|c0|p34;          NC      3\P+9 - 12VDC  2\P           GND  1}
1001
ACAD
1000
MTEXTBEGIN
1070
    73
1070
     1
1070
    44
1040
1.0
1070
    74
1070
     0
1000
MTEXTEND
  0
LINE
  5
B8B
330
15C
100
AcDbEntity
  8
IFS_FIBER_OPTICS
100
AcDbLine
 10
356.939858114178
 20
64.49644150953395
 30
0.0
 11
356.939858114178
 21
54.33644150953393
 31
0.0
  0
LINE
  5
B8C
330
15C
100
AcDbEntity
  8
0
100
AcDbLine
 10
348.9243837053802
 20
47.85032972573938
 30
0.0
 11
353.4963837053802
 21
47.85032972573938
 31
0.0
  0
LINE
  5
B8D
330
15C
100
AcDbEntity
  8
0
100
AcDbLine
 10
348.9243837053802
 20
47.85032972573938
 30
0.0
 11
353.4963837053802
 21
47.85032972573938
 31
0.0
  0
LINE
  5
B8E
330
15C
100
AcDbEntity
  8
IFS_FIBER_OPTICS
100
AcDbLine
 10
363.5552606900756
 20
58.31197009376461
 30
0.0
 11
360.7847571317121
 21
55.89381465187045
 31
0.0
  0
LINE
  5
B8F
330
15C
100
AcDbEntity
  8
IFS_FIBER_OPTICS
100
AcDbLine
 10
363.5552606900756
 20
58.31197009376461
 30
0.0
 11
360.7847571317121
 21
55.89381465187045
 31
0.0
  0
LINE
  5
B90
330
15C
100
AcDbEntity
  8
IFS_FIBER_OPTICS
100
AcDbLine
 10
361.3674863601695
 20
55.19397466247068
 30
0.0
 11
364.1967657491316
 21
57.58890850884302
 31
0.0
  0
LINE
  5
B91
330
15C
100
AcDbEntity
  8
IFS_FIBER_OPTICS
100
AcDbLine
 10
362.497632594309
 20
56.72753082037957
 30
0.0
 11
362.497632594309
 21
56.72753082037957
 31
0.0
  0
LINE
  5
B92
330
15C
100
AcDbEntity
  8
IFS_FIBER_OPTICS
100
AcDbLine
 10
361.3674863601695
 20
55.19397466247068
 30
0.0
 11
364.1967657491316
 21
57.58890850884302
 31
0.0
  0
LINE
  5
B93
330
15C
100
AcDbEntity
  8
IFS_FIBER_OPTICS
100
AcDbLine
 10
362.497632594309
 20
56.72753082037957
 30
0.0
 11
362.497632594309
 21
56.72753082037957
 31
0.0
  0
LINE
  5
B94
330
15C
100
AcDbEntity
  8
IFS_FIBER_OPTICS
100
AcDbLine
 10
361.3674863601695
 20
65.4440247150894
 30
0.0
 11
364.1967657491316
 21
67.83895856146177
 31
0.0
  0
LINE
  5
B95
330
15C
100
AcDbEntity
  8
IFS_FIBER_OPTICS
100
AcDbLine
 10
363.5552606900756
 20
68.56202014638336
 30
0.0
 11
360.7847571317121
 21
66.14386470448917
 31
0.0
  0
LINE
  5
B96
330
15C
100
AcDbEntity
  8
IFS_FIBER_OPTICS
100
AcDbLine
 10
361.3674863601695
 20
65.4440247150894
 30
0.0
 11
364.1967657491316
 21
67.83895856146177
 31
0.0
  0
LINE
  5
B97
330
15C
100
AcDbEntity
  8
IFS_FIBER_OPTICS
100
AcDbLine
 10
363.5552606900756
 20
68.56202014638336
 30
0.0
 11
360.7847571317121
 21
66.14386470448917
 31
0.0
  0
LINE
  5
B98
330
15C
100
AcDbEntity
  8
0
100
AcDbLine
 10
366.083858114178
 20
54.33644150953393
 30
0.0
 11
366.083858114178
 21
69.74701267724256
 31
0.0
  0
LINE
  5
B99
330
15C
100
AcDbEntity
  8
0
100
AcDbLine
 10
366.083858114178
 20
54.33644150953393
 30
0.0
 11
366.083858114178
 21
69.74701267724256
 31
0.0
  0
LINE
  5
B9A
330
15C
100
AcDbEntity
  8
IFS_FIBER_OPTICS
100
AcDbLine
 10
332.159363357021
 20
95.998381039003
 30
0.0
 11
332.159363357021
 21
90.66438103900301
 31
0.0
  0
LINE
  5
B9B
330
15C
100
AcDbEntity
  8
IFS_FIBER_OPTICS
100
AcDbLine
 10
331.651363357021
 20
95.998381039003
 30
0.0
 11
331.651363357021
 21
90.66438103900301
 31
0.0
  0
LINE
  5
B9C
330
15C
100
AcDbEntity
  8
IFS_FIBER_OPTICS
100
AcDbLine
 10
331.143363357021
 20
95.998381039003
 30
0.0
 11
331.143363357021
 21
90.66438103900301
 31
0.0
  0
LINE
  5
B9D
330
15C
100
AcDbEntity
  8
IFS_FIBER_OPTICS
100
AcDbLine
 10
330.635363357021
 20
95.998381039003
 30
0.0
 11
330.635363357021
 21
90.66438103900301
 31
0.0
  0
LINE
  5
B9E
330
15C
100
AcDbEntity
  8
IFS_FIBER_OPTICS
100
AcDbLine
 10
330.1273633570209
 20
95.998381039003
 30
0.0
 11
330.1273633570209
 21
90.66438103900301
 31
0.0
  0
LINE
  5
B9F
330
15C
100
AcDbEntity
  8
IFS_FIBER_OPTICS
100
AcDbLine
 10
329.6193633570209
 20
95.998381039003
 30
0.0
 11
329.6193633570209
 21
90.66438103900301
 31
0.0
  0
LINE
  5
BA0
330
15C
100
AcDbEntity
  8
IFS_FIBER_OPTICS
100
AcDbLine
 10
337.7473633570209
 20
95.998381039003
 30
0.0
 11
337.7473633570209
 21
90.66438103900301
 31
0.0
  0
LINE
  5
BA1
330
15C
100
AcDbEntity
  8
IFS_FIBER_OPTICS
100
AcDbLine
 10
337.239363357021
 20
95.998381039003
 30
0.0
 11
337.239363357021
 21
90.66438103900301
 31
0.0
  0
LINE
  5
BA2
330
15C
100
AcDbEntity
  8
IFS_FIBER_OPTICS
100
AcDbLine
 10
336.7313633570209
 20
95.998381039003
 30
0.0
 11
336.7313633570209
 21
90.66438103900301
 31
0.0
  0
LINE
  5
BA3
330
15C
100
AcDbEntity
  8
IFS_FIBER_OPTICS
100
AcDbLine
 10
336.223363357021
 20
95.998381039003
 30
0.0
 11
336.223363357021
 21
90.66438103900301
 31
0.0
  0
LINE
  5
BA4
330
15C
100
AcDbEntity
  8
IFS_FIBER_OPTICS
100
AcDbLine
 10
335.715363357021
 20
95.998381039003
 30
0.0
 11
335.715363357021
 21
90.66438103900301
 31
0.0
  0
LINE
  5
BA5
330
15C
100
AcDbEntity
  8
IFS_FIBER_OPTICS
100
AcDbLine
 10
335.2073633570209
 20
95.998381039003
 30
0.0
 11
335.2073633570209
 21
90.66438103900301
 31
0.0
  0
LINE
  5
BA6
330
15C
100
AcDbEntity
  8
IFS_FIBER_OPTICS
100
AcDbLine
 10
334.699363357021
 20
95.998381039003
 30
0.0
 11
334.699363357021
 21
90.66438103900301
 31
0.0
  0
LINE
  5
BA7
330
15C
100
AcDbEntity
  8
IFS_FIBER_OPTICS
100
AcDbLine
 10
334.1913633570209
 20
95.998381039003
 30
0.0
 11
334.1913633570209
 21
90.66438103900301
 31
0.0
  0
LINE
  5
BA8
330
15C
100
AcDbEntity
  8
IFS_FIBER_OPTICS
100
AcDbLine
 10
333.6833633570211
 20
95.998381039003
 30
0.0
 11
333.6833633570211
 21
90.66438103900301
 31
0.0
  0
LINE
  5
BA9
330
15C
100
AcDbEntity
  8
IFS_FIBER_OPTICS
100
AcDbLine
 10
333.1753633570209
 20
95.998381039003
 30
0.0
 11
333.1753633570209
 21
90.66438103900301
 31
0.0
  0
LINE
  5
BAA
330
15C
100
AcDbEntity
  8
IFS_FIBER_OPTICS
100
AcDbLine
 10
332.667363357021
 20
95.998381039003
 30
0.0
 11
332.667363357021
 21
90.66438103900301
 31
0.0
  0
LINE
  5
BAB
330
15C
100
AcDbEntity
  8
IFS_FIBER_OPTICS
100
AcDbLine
 10
340.287363357021
 20
95.998381039003
 30
0.0
 11
340.287363357021
 21
90.66438103900301
 31
0.0
  0
LINE
  5
BAC
330
15C
100
AcDbEntity
  8
IFS_FIBER_OPTICS
100
AcDbLine
 10
339.779363357021
 20
95.998381039003
 30
0.0
 11
339.779363357021
 21
90.66438103900301
 31
0.0
  0
LINE
  5
BAD
330
15C
100
AcDbEntity
  8
IFS_FIBER_OPTICS
100
AcDbLine
 10
339.271363357021
 20
95.998381039003
 30
0.0
 11
339.271363357021
 21
90.66438103900301
 31
0.0
  0
LINE
  5
BAE
330
15C
100
AcDbEntity
  8
IFS_FIBER_OPTICS
100
AcDbLine
 10
338.7633633570209
 20
95.998381039003
 30
0.0
 11
338.7633633570209
 21
90.66438103900301
 31
0.0
  0
LINE
  5
BAF
330
15C
100
AcDbEntity
  8
IFS_FIBER_OPTICS
100
AcDbLine
 10
338.255363357021
 20
95.998381039003
 30
0.0
 11
338.255363357021
 21
90.66438103900301
 31
0.0
  0
LINE
  5
BB0
330
15C
100
AcDbEntity
  8
IFS_FIBER_OPTICS
100
AcDbLine
 10
340.707290466643
 20
90.15638103900304
 30
0.0
 11
340.707290466643
 21
96.50638103900298
 31
0.0
  0
LINE
  5
BB1
330
15C
100
AcDbEntity
  8
IFS_FIBER_OPTICS
100
AcDbLine
 10
332.159363357021
 20
95.998381039003
 30
0.0
 11
332.159363357021
 21
90.66438103900301
 31
0.0
  0
LINE
  5
BB2
330
15C
100
AcDbEntity
  8
IFS_FIBER_OPTICS
100
AcDbLine
 10
331.651363357021
 20
95.998381039003
 30
0.0
 11
331.651363357021
 21
90.66438103900301
 31
0.0
  0
LINE
  5
BB3
330
15C
100
AcDbEntity
  8
IFS_FIBER_OPTICS
100
AcDbLine
 10
331.143363357021
 20
95.998381039003
 30
0.0
 11
331.143363357021
 21
90.66438103900301
 31
0.0
  0
LINE
  5
BB4
330
15C
100
AcDbEntity
  8
IFS_FIBER_OPTICS
100
AcDbLine
 10
330.635363357021
 20
95.998381039003
 30
0.0
 11
330.635363357021
 21
90.66438103900301
 31
0.0
  0
LINE
  5
BB5
330
15C
100
AcDbEntity
  8
IFS_FIBER_OPTICS
100
AcDbLine
 10
330.1273633570209
 20
95.998381039003
 30
0.0
 11
330.1273633570209
 21
90.66438103900301
 31
0.0
  0
LINE
  5
BB6
330
15C
100
AcDbEntity
  8
IFS_FIBER_OPTICS
100
AcDbLine
 10
329.6193633570209
 20
95.998381039003
 30
0.0
 11
329.6193633570209
 21
90.66438103900301
 31
0.0
  0
LINE
  5
BB7
330
15C
100
AcDbEntity
  8
IFS_FIBER_OPTICS
100
AcDbLine
 10
337.7473633570209
 20
95.998381039003
 30
0.0
 11
337.7473633570209
 21
90.66438103900301
 31
0.0
  0
LINE
  5
BB8
330
15C
100
AcDbEntity
  8
IFS_FIBER_OPTICS
100
AcDbLine
 10
337.239363357021
 20
95.998381039003
 30
0.0
 11
337.239363357021
 21
90.66438103900301
 31
0.0
  0
LINE
  5
BB9
330
15C
100
AcDbEntity
  8
IFS_FIBER_OPTICS
100
AcDbLine
 10
336.7313633570209
 20
95.998381039003
 30
0.0
 11
336.7313633570209
 21
90.66438103900301
 31
0.0
  0
LINE
  5
BBA
330
15C
100
AcDbEntity
  8
IFS_FIBER_OPTICS
100
AcDbLine
 10
336.223363357021
 20
95.998381039003
 30
0.0
 11
336.223363357021
 21
90.66438103900301
 31
0.0
  0
LINE
  5
BBB
330
15C
100
AcDbEntity
  8
IFS_FIBER_OPTICS
100
AcDbLine
 10
335.715363357021
 20
95.998381039003
 30
0.0
 11
335.715363357021
 21
90.66438103900301
 31
0.0
  0
LINE
  5
BBC
330
15C
100
AcDbEntity
  8
IFS_FIBER_OPTICS
100
AcDbLine
 10
335.2073633570209
 20
95.998381039003
 30
0.0
 11
335.2073633570209
 21
90.66438103900301
 31
0.0
  0
LINE
  5
BBD
330
15C
100
AcDbEntity
  8
IFS_FIBER_OPTICS
100
AcDbLine
 10
334.699363357021
 20
95.998381039003
 30
0.0
 11
334.699363357021
 21
90.66438103900301
 31
0.0
  0
LINE
  5
BBE
330
15C
100
AcDbEntity
  8
IFS_FIBER_OPTICS
100
AcDbLine
 10
334.1913633570209
 20
95.998381039003
 30
0.0
 11
334.1913633570209
 21
90.66438103900301
 31
0.0
  0
LINE
  5
BBF
330
15C
100
AcDbEntity
  8
IFS_FIBER_OPTICS
100
AcDbLine
 10
333.6833633570211
 20
95.998381039003
 30
0.0
 11
333.6833633570211
 21
90.66438103900301
 31
0.0
  0
LINE
  5
BC0
330
15C
100
AcDbEntity
  8
IFS_FIBER_OPTICS
100
AcDbLine
 10
333.1753633570209
 20
95.998381039003
 30
0.0
 11
333.1753633570209
 21
90.66438103900301
 31
0.0
  0
LINE
  5
BC1
330
15C
100
AcDbEntity
  8
IFS_FIBER_OPTICS
100
AcDbLine
 10
332.667363357021
 20
95.998381039003
 30
0.0
 11
332.667363357021
 21
90.66438103900301
 31
0.0
  0
LINE
  5
BC2
330
15C
100
AcDbEntity
  8
IFS_FIBER_OPTICS
100
AcDbLine
 10
340.287363357021
 20
95.998381039003
 30
0.0
 11
340.287363357021
 21
90.66438103900301
 31
0.0
  0
LINE
  5
BC3
330
15C
100
AcDbEntity
  8
IFS_FIBER_OPTICS
100
AcDbLine
 10
339.779363357021
 20
95.998381039003
 30
0.0
 11
339.779363357021
 21
90.66438103900301
 31
0.0
  0
LINE
  5
BC4
330
15C
100
AcDbEntity
  8
IFS_FIBER_OPTICS
100
AcDbLine
 10
339.271363357021
 20
95.998381039003
 30
0.0
 11
339.271363357021
 21
90.66438103900301
 31
0.0
  0
LINE
  5
BC5
330
15C
100
AcDbEntity
  8
IFS_FIBER_OPTICS
100
AcDbLine
 10
338.7633633570209
 20
95.998381039003
 30
0.0
 11
338.7633633570209
 21
90.66438103900301
 31
0.0
  0
LINE
  5
BC6
330
15C
100
AcDbEntity
  8
IFS_FIBER_OPTICS
100
AcDbLine
 10
338.255363357021
 20
95.998381039003
 30
0.0
 11
338.255363357021
 21
90.66438103900301
 31
0.0
  0
LINE
  5
BC7
330
15C
100
AcDbEntity
  8
IFS_FIBER_OPTICS
100
AcDbLine
 10
340.707290466643
 20
90.15638103900304
 30
0.0
 11
340.707290466643
 21
96.50638103900298
 31
0.0
  0
LINE
  5
BC8
330
15C
100
AcDbEntity
  8
IFS_FIBER_OPTICS
100
AcDbLine
 10
342.9932904666431
 20
83.04438103900304
 30
0.0
 11
342.9932904666431
 21
85.58438103900298
 31
0.0
  0
LINE
  5
BC9
330
15C
100
AcDbEntity
  8
IFS_FIBER_OPTICS
100
AcDbLine
 10
342.9932904666431
 20
83.04438103900304
 30
0.0
 11
342.9932904666431
 21
85.58438103900298
 31
0.0
  0
LINE
  5
BCA
330
15C
100
AcDbEntity
  8
IFS_FIBER_OPTICS
100
AcDbLine
 10
338.548290466643
 20
85.58438103900298
 30
0.0
 11
338.548290466643
 21
90.15638103900304
 31
0.0
  0
LINE
  5
BCB
330
15C
100
AcDbEntity
  8
IFS_FIBER_OPTICS
100
AcDbLine
 10
338.548290466643
 20
85.58438103900298
 30
0.0
 11
338.548290466643
 21
90.15638103900304
 31
0.0
  0
LINE
  5
BCC
330
15C
100
AcDbEntity
  8
0
100
AcDbLine
 10
348.9243837053804
 20
77.65414783267371
 30
0.0
 11
353.4963837053803
 21
77.65414783267371
 31
0.0
  0
LINE
  5
BCD
330
15C
100
AcDbEntity
  8
0
100
AcDbLine
 10
348.9243837053804
 20
77.65414783267371
 30
0.0
 11
353.4963837053803
 21
77.65414783267371
 31
0.0
  0
LINE
  5
BCE
330
15C
100
AcDbEntity
  8
IFS_FIBER_OPTICS
100
AcDbLine
 10
338.1145987265192
 20
100.1761210056629
 30
0.0
 11
332.5056076591008
 21
97.85280083430871
 31
0.0
  0
LINE
  5
BCF
330
15C
100
AcDbEntity
  8
IFS_FIBER_OPTICS
100
AcDbLine
 10
337.0957809576539
 20
100.8111210056629
 30
0.0
 11
332.0604386670828
 21
98.72541393771758
 31
0.0
  0
LINE
  5
BD0
330
15C
100
AcDbEntity
  8
IFS_FIBER_OPTICS
100
AcDbLine
 10
339.1832904666431
 20
96.50638103900298
 30
0.0
 11
339.1832904666431
 21
102.0943810390029
 31
0.0
  0
LINE
  5
BD1
330
15C
100
AcDbEntity
  8
IFS_FIBER_OPTICS
100
AcDbLine
 10
338.1145987265192
 20
100.1761210056629
 30
0.0
 11
332.5056076591008
 21
97.85280083430871
 31
0.0
  0
LINE
  5
BD2
330
15C
100
AcDbEntity
  8
IFS_FIBER_OPTICS
100
AcDbLine
 10
337.0957809576539
 20
100.8111210056629
 30
0.0
 11
332.0604386670828
 21
98.72541393771758
 31
0.0
  0
LINE
  5
BD3
330
15C
100
AcDbEntity
  8
IFS_FIBER_OPTICS
100
AcDbLine
 10
339.1832904666431
 20
96.50638103900298
 30
0.0
 11
339.1832904666431
 21
102.0943810390029
 31
0.0
  0
ARC
  5
BD4
330
15C
100
AcDbEntity
  8
IFS_FIBER_OPTICS
100
AcDbCircle
 10
331.8998963767118
 20
98.09365287743245
 30
0.0
 40
0.6518403671837572
100
AcDbArc
 50
75.74187073107609
 51
338.3154968825468
  0
ARC
  5
BD5
330
15C
100
AcDbEntity
  8
IFS_FIBER_OPTICS
100
AcDbCircle
 10
331.8998963767118
 20
98.09365287743245
 30
0.0
 40
0.6518403671837572
100
AcDbArc
 50
75.74187073107609
 51
338.3154968825468
  0
LINE
  5
BD6
330
15C
100
AcDbEntity
  8
IFS_FIBER_OPTICS
100
AcDbLine
 10
337.0957809576539
 20
102.0811210056629
 30
0.0
 11
337.0957809576539
 21
100.8111210056629
 31
0.0
  0
LINE
  5
BD7
330
15C
100
AcDbEntity
  8
IFS_FIBER_OPTICS
100
AcDbLine
 10
337.0957809576539
 20
102.0811210056629
 30
0.0
 11
337.0957809576539
 21
100.8111210056629
 31
0.0
  0
LINE
  5
BD8
330
15C
100
AcDbEntity
  8
IFS_FIBER_OPTICS
100
AcDbLine
 10
340.453290466643
 20
102.0943810390029
 30
0.0
 11
340.453290466643
 21
104.634381039003
 31
0.0
  0
LINE
  5
BD9
330
15C
100
AcDbEntity
  8
IFS_FIBER_OPTICS
100
AcDbLine
 10
340.453290466643
 20
102.0943810390029
 30
0.0
 11
340.453290466643
 21
104.634381039003
 31
0.0
  0
LINE
  5
BDA
330
15C
100
AcDbEntity
  8
IFS_FIBER_OPTICS
100
AcDbLine
 10
338.1145987265192
 20
102.0811210056629
 30
0.0
 11
338.1145987265192
 21
100.1761210056629
 31
0.0
  0
LINE
  5
BDB
330
15C
100
AcDbEntity
  8
IFS_FIBER_OPTICS
100
AcDbLine
 10
338.1145987265192
 20
102.0811210056629
 30
0.0
 11
338.1145987265192
 21
100.1761210056629
 31
0.0
  0
ENDBLK
  5
15E
330
15C
100
AcDbEntity
  8
0
100
AcDbBlockEnd
  0
BLOCK
  5
1C6
330
1C5
100
AcDbEntity
  8
0
100
AcDbBlockBegin
  2
LTC4641
 70
     0
 10
0.0
 20
0.0
 30
0.0
  3
LTC4641
  1

  0
INSERT
  5
1C8
330
1C5
100
AcDbEntity
  8
0
100
AcDbBlockReference
  2
4641
 10
-1.945072813462225
 20
0.0
 30
0.0
  0
ENDBLK
  5
1C7
330
1C5
100
AcDbEntity
  8
0
100
AcDbBlockEnd
  0
BLOCK
  5
1CC
330
1CB
100
AcDbEntity
  8
0
100
AcDbBlockBegin
  2
LTC_4641
 70
     0
 10
0.0
 20
0.0
 30
0.0
  3
LTC_4641
  1

  0
INSERT
  5
1CE
330
1CB
100
AcDbEntity
  8
0
100
AcDbBlockReference
  2
LTC4641
 10
0.0
 20
0.0
 30
0.0
  0
INSERT
  5
1CF
330
1CB
100
AcDbEntity
  8
0
100
AcDbBlockReference
  2
4641
 10
-1.945072813462225
 20
0.0
 30
0.0
  0
ENDBLK
  5
1CD
330
1CB
100
AcDbEntity
  8
0
100
AcDbBlockEnd
  0
BLOCK
  5
1DD
330
1D1
100
AcDbEntity
  8
0
100
AcDbBlockBegin
  2
LARGE_2_PIN
 70
     0
 10
0.0
 20
0.0
 30
0.0
  3
LARGE_2_PIN
  1

  0
LINE
  5
1D2
330
1D1
100
AcDbEntity
  8
IFS_FIBER_OPTICS
100
AcDbLine
 10
5.5267952523269
 20
0.6431137898109789
 30
0.0
 11
5.8867952523269
 21
0.6431137898109789
 31
0.0
  0
LINE
  5
1D3
330
1D1
100
AcDbEntity
  8
IFS_FIBER_OPTICS
100
AcDbLine
 10
5.8867952523269
 20
1.043113789810979
 30
0.0
 11
5.5267952523269
 21
1.043113789810979
 31
0.0
  0
LINE
  5
1D4
330
1D1
100
AcDbEntity
  8
IFS_FIBER_OPTICS
100
AcDbLine
 10
5.701111325003729
 20
0.676874937564393
 30
0.0
 11
5.812500277325071
 21
0.7711636716735413
 31
0.0
  0
CIRCLE
  5
1D5
330
1D1
100
AcDbEntity
  8
IFS_FIBER_OPTICS
100
AcDbCircle
 10
5.745605271229694
 20
0.7372511642537205
 30
0.0
 40
0.075
  0
LINE
  5
1D6
330
1D1
100
AcDbEntity
  8
IFS_FIBER_OPTICS
100
AcDbLine
 10
5.78724417263783
 20
0.7996306632058881
 30
0.0
 11
5.678169229395171
 21
0.7044276930525735
 31
0.0
  0
LINE
  5
1D7
330
1D1
100
AcDbEntity
  8
IFS_FIBER_OPTICS
100
AcDbLine
 10
5.5267952523269
 20
1.043113789810979
 30
0.0
 11
5.5267952523269
 21
0.6431137898109789
 31
0.0
  0
LINE
  5
1D8
330
1D1
100
AcDbEntity
  8
IFS_FIBER_OPTICS
100
AcDbLine
 10
5.745605271229694
 20
0.7372511642537205
 30
0.0
 11
5.745605271229694
 21
0.7372511642537205
 31
0.0
  0
LINE
  5
1D9
330
1D1
100
AcDbEntity
  8
IFS_FIBER_OPTICS
100
AcDbLine
 10
5.78724417263783
 20
0.9996306632058882
 30
0.0
 11
5.678169229395171
 21
0.9044276930525736
 31
0.0
  0
CIRCLE
  5
1DA
330
1D1
100
AcDbEntity
  8
IFS_FIBER_OPTICS
100
AcDbCircle
 10
5.745605271229694
 20
0.9372511642537206
 30
0.0
 40
0.075
  0
LINE
  5
1DB
330
1D1
100
AcDbEntity
  8
IFS_FIBER_OPTICS
100
AcDbLine
 10
5.701111325003729
 20
0.8768749375643931
 30
0.0
 11
5.812500277325071
 21
0.9711636716735414
 31
0.0
  0
LINE
  5
1DC
330
1D1
100
AcDbEntity
  8
IFS_FIBER_OPTICS
100
AcDbLine
 10
5.8867952523269
 20
0.6431137898109789
 30
0.0
 11
5.8867952523269
 21
1.043113789810979
 31
0.0
  0
ENDBLK
  5
1DE
330
1D1
100
AcDbEntity
  8
0
100
AcDbBlockEnd
  0
BLOCK
  5
1E5
330
1DF
100
AcDbEntity
  8
0
100
AcDbBlockBegin
  2
BNC
 70
     0
 10
0.0
 20
0.0
 30
0.0
  3
BNC
  1

  0
LINE
  5
1E0
330
1DF
100
AcDbEntity
  8
IFS_FIBER_OPTICS
100
AcDbLine
 10
0.4499999999999993
 20
0.0
 30
0.0
 11
0.4499999999999993
 21
0.3799999999999999
 31
0.0
  0
LINE
  5
1E1
330
1DF
100
AcDbEntity
  8
IFS_FIBER_OPTICS
100
AcDbLine
 10
0.0
 20
0.3799999999999999
 30
0.0
 11
0.0
 21
0.0
 31
0.0
  0
LINE
  5
1E2
330
1DF
100
AcDbEntity
  8
IFS_FIBER_OPTICS
100
AcDbLine
 10
0.0
 20
0.0
 30
0.0
 11
0.4499999999999993
 21
0.0
 31
0.0
  0
LINE
  5
1E3
330
1DF
100
AcDbEntity
  8
IFS_FIBER_OPTICS
100
AcDbLine
 10
0.4499999999999993
 20
0.3799999999999999
 30
0.0
 11
0.0
 21
0.3799999999999999
 31
0.0
  0
LWPOLYLINE
  5
1E4
330
1DF
100
AcDbEntity
  8
IFS_FIBER_OPTICS
100
AcDbPolyline
 90
        2
 70
     1
 43
0.04
 10
0.2799999999999994
 20
0.19
 42
1.0
 10
0.3199999999999985
 20
0.19
 42
1.0
  0
ENDBLK
  5
1E6
330
1DF
100
AcDbEntity
  8
0
100
AcDbBlockEnd
  0
BLOCK
  5
1EC
330
1E7
100
AcDbEntity
  8
0
100
AcDbBlockBegin
  2
GROUND_SYMBOL
 70
     0
 10
0.0
 20
0.0
 30
0.0
  3
GROUND_SYMBOL
  1

  0
LWPOLYLINE
  5
1E8
330
1E7
100
AcDbEntity
  8
IFS_FIBER_OPTICS
100
AcDbPolyline
 90
        2
 70
     0
 43
0.01
 10
5.704048951695114
 20
0.9956725663308638
 10
5.870918297757938
 20
0.9956725663308638
  0
LWPOLYLINE
  5
1E9
330
1E7
100
AcDbEntity
  8
IFS_FIBER_OPTICS
100
AcDbPolyline
 90
        2
 70
     0
 43
0.01
 10
5.635338051331849
 20
1.017741203318625
 10
5.635338051331849
 20
0.9686997629247748
  0
LWPOLYLINE
  5
1EA
330
1E7
100
AcDbEntity
  8
IFS_FIBER_OPTICS
100
AcDbPolyline
 90
        2
 70
     0
 43
0.01
 10
5.672147492690925
 20
1.034905718645944
 10
5.672147492690925
 20
0.9539873308066191
  0
LWPOLYLINE
  5
1EB
330
1E7
100
AcDbEntity
  8
IFS_FIBER_OPTICS
100
AcDbPolyline
 90
        2
 70
     0
 43
0.01
 10
5.704048951695114
 20
1.05697437801265
 10
5.704048951695114
 20
0.9392748986884633
  0
ENDBLK
  5
1ED
330
1E7
100
AcDbEntity
  8
0
100
AcDbBlockEnd
  0
BLOCK
  5
207
330
1EE
100
AcDbEntity
  8
0
100
AcDbBlockBegin
  2
CONNR3MOLEX
 70
     0
 10
0.0
 20
0.0
 30
0.0
  3
CONNR3MOLEX
  1

  0
LINE
  5
1EF
330
1EE
100
AcDbEntity
  8
0
100
AcDbLine
 10
0.0499999999999998
 20
0.1299999999999999
 30
0.0
 11
0.2000000000000011
 21
0.1299999999999999
 31
0.0
  0
LINE
  5
1F0
330
1EE
100
AcDbEntity
  8
0
100
AcDbLine
 10
0.0499999999999998
 20
0.1893308432827889
 30
0.0
 11
0.2000000000000002
 21
0.1893308432827885
 31
0.0
  0
LINE
  5
1F1
330
1EE
100
AcDbEntity
  8
0
100
AcDbLine
 10
0.0499999999999998
 20
0.2693308432827894
 30
0.0
 11
0.2000000000000002
 21
0.2693308432827886
 31
0.0
  0
LINE
  5
1F2
330
1EE
100
AcDbEntity
  8
0
100
AcDbLine
 10
0.0499999999999998
 20
0.3287453703817866
 30
0.0
 11
0.1999999999999993
 21
0.3287453703817862
 31
0.0
  0
LINE
  5
1F3
330
1EE
100
AcDbEntity
  8
0
100
AcDbLine
 10
0.42
 20
0.42
 30
0.0
 11
0.0499999999999998
 21
0.42
 31
0.0
  0
LINE
  5
1F4
330
1EE
100
AcDbEntity
  8
0
100
AcDbLine
 10
0.0499999999999998
 20
0.0499999999999998
 30
0.0
 11
0.42
 21
0.0499999999999998
 31
0.0
  0
LINE
  5
1F5
330
1EE
100
AcDbEntity
  8
0
100
AcDbLine
 10
0.0
 20
0.0
 30
0.0
 11
0.42
 21
0.0
 31
0.0
  0
LINE
  5
1F6
330
1EE
100
AcDbEntity
  8
0
100
AcDbLine
 10
0.42
 20
0.4699999999999998
 30
0.0
 11
0.0
 21
0.4699999999999998
 31
0.0
  0
LINE
  5
1F7
330
1EE
100
AcDbEntity
  8
0
100
AcDbLine
 10
0.0
 20
0.4699999999999998
 30
0.0
 11
0.0
 21
0.0
 31
0.0
  0
LINE
  5
1F8
330
1EE
100
AcDbEntity
  8
0
100
AcDbLine
 10
0.0499999999999998
 20
0.42
 30
0.0
 11
0.0499999999999998
 21
0.0499999999999998
 31
0.0
  0
LINE
  5
1F9
330
1EE
100
AcDbEntity
  8
0
100
AcDbLine
 10
0.2500000000000009
 20
0.4048126075574832
 30
0.0
 11
0.1999999999999993
 21
0.4048126075574832
 31
0.0
  0
LINE
  5
1FA
330
1EE
100
AcDbEntity
  8
0
100
AcDbLine
 10
0.2000000000000002
 20
0.2034316703424213
 30
0.0
 11
0.25
 21
0.2034316703424213
 31
0.0
  0
LINE
  5
1FB
330
1EE
100
AcDbEntity
  8
0
100
AcDbLine
 10
0.2000000000000002
 20
0.2554090772661204
 30
0.0
 11
0.25
 21
0.2554090772661204
 31
0.0
  0
LINE
  5
1FC
330
1EE
100
AcDbEntity
  8
0
100
AcDbLine
 10
0.1999999999999993
 20
0.3426671613319931
 30
0.0
 11
0.25
 21
0.3426671613319931
 31
0.0
  0
LINE
  5
1FD
330
1EE
100
AcDbEntity
  8
0
100
AcDbLine
 10
0.2000000000000011
 20
0.0642139104416018
 30
0.0
 11
0.2500000000000009
 21
0.0642139104416022
 31
0.0
  0
LINE
  5
1FE
330
1EE
100
AcDbEntity
  8
0
100
AcDbLine
 10
0.2000000000000011
 20
0.1173438354756446
 30
0.0
 11
0.25
 21
0.1173438354756451
 31
0.0
  0
LINE
  5
1FF
330
1EE
100
AcDbEntity
  8
0
100
AcDbLine
 10
0.1873338417611006
 20
0.0499999999999998
 30
0.0
 11
0.1873338417610988
 21
0.42
 31
0.0
  0
LINE
  5
200
330
1EE
100
AcDbEntity
  8
0
100
AcDbLine
 10
0.2000000000000011
 20
0.0499999999999998
 30
0.0
 11
0.1999999999999993
 21
0.42
 31
0.0
  0
LINE
  5
201
330
1EE
100
AcDbEntity
  8
0
100
AcDbLine
 10
0.2500000000000009
 20
0.4048126075574832
 30
0.0
 11
0.2500000000000018
 21
0.42
 31
0.0
  0
LINE
  5
202
330
1EE
100
AcDbEntity
  8
0
100
AcDbLine
 10
0.2500000000000009
 20
0.2554090772661208
 30
0.0
 11
0.25
 21
0.3426671613319931
 31
0.0
  0
LINE
  5
203
330
1EE
100
AcDbEntity
  8
0
100
AcDbLine
 10
0.25
 20
0.0499999999999998
 30
0.0
 11
0.25
 21
0.0642139104416022
 31
0.0
  0
LINE
  5
204
330
1EE
100
AcDbEntity
  8
0
100
AcDbLine
 10
0.2500000000000009
 20
0.1173438354756455
 30
0.0
 11
0.2500000000000009
 21
0.2034316703424213
 31
0.0
  0
LINE
  5
205
330
1EE
100
AcDbEntity
  8
0
100
AcDbLine
 10
0.4200000000000009
 20
0.0499999999999998
 30
0.0
 11
0.42
 21
0.0
 31
0.0
  0
LINE
  5
206
330
1EE
100
AcDbEntity
  8
0
100
AcDbLine
 10
0.42
 20
0.4699999999999998
 30
0.0
 11
0.4200000000000009
 21
0.42
 31
0.0
  0
ENDBLK
  5
208
330
1EE
100
AcDbEntity
  8
0
100
AcDbBlockEnd
  0
BLOCK
  5
214
330
209
100
AcDbEntity
  8
0
100
AcDbBlockBegin
  2
BNC_FEMALE_FRONT
 70
     0
 10
0.0
 20
0.0
 30
0.0
  3
BNC_FEMALE_FRONT
  1

  0
CIRCLE
  5
20A
330
209
100
AcDbEntity
  8
0
100
AcDbCircle
 10
0.3000000000000007
 20
0.2850000000000001
 30
0.0
 40
0.075
  0
CIRCLE
  5
20B
330
209
100
AcDbEntity
  8
0
100
AcDbCircle
 10
0.3000000000000007
 20
0.2850000000000001
 30
0.0
 40
0.19
  0
CIRCLE
  5
20C
330
209
100
AcDbEntity
  8
0
100
AcDbCircle
 10
0.3000000000000007
 20
0.2850000000000001
 30
0.0
 40
0.24
  0
LINE
  5
20D
330
209
100
AcDbEntity
  8
0
100
AcDbLine
 10
0.0
 20
0.5700000000000003
 30
0.0
 11
0.0
 21
0.0
 31
0.0
  0
LINE
  5
20E
330
209
100
AcDbEntity
  8
0
100
AcDbLine
 10
0.5999999999999997
 20
0.0
 30
0.0
 11
0.5999999999999997
 21
0.5700000000000003
 31
0.0
  0
LINE
  5
20F
330
209
100
AcDbEntity
  8
0
100
AcDbLine
 10
0.0
 20
0.0
 30
0.0
 11
0.5999999999999997
 21
0.0
 31
0.0
  0
LINE
  5
210
330
209
100
AcDbEntity
  8
0
100
AcDbLine
 10
0.5999999999999997
 20
0.5700000000000003
 30
0.0
 11
0.0
 21
0.5700000000000003
 31
0.0
  0
LWPOLYLINE
  5
211
330
209
100
AcDbEntity
  8
0
100
AcDbPolyline
 90
        2
 70
     0
 43
0.07
 10
-0.0080157807866801
 20
0.2850000000000001
 10
0.0619842192133202
 20
0.2850000000000001
  0
LWPOLYLINE
  5
212
330
209
100
AcDbEntity
  8
0
100
AcDbPolyline
 90
        2
 70
     1
 43
0.025
 10
0.2875000000000014
 20
0.2850000000000001
 42
1.0
 10
0.3125
 20
0.2850000000000001
 42
1.0
  0
LWPOLYLINE
  5
213
330
209
100
AcDbEntity
  8
0
100
AcDbPolyline
 90
        2
 70
     0
 43
0.07
 10
0.5378307042037474
 20
0.2850000000000001
 10
0.6078307042037477
 20
0.2850000000000001
  0
ENDBLK
  5
215
330
209
100
AcDbEntity
  8
0
100
AcDbBlockEnd
  0
BLOCK
  5
21F
330
216
100
AcDbEntity
  8
0
100
AcDbBlockBegin
  2
ST_CONN_FRONT
 70
     0
 10
0.0
 20
0.0
 30
0.0
  3
ST_CONN_FRONT
  1

  0
CIRCLE
  5
217
330
216
100
AcDbEntity
  8
0
100
AcDbCircle
 10
0.2000000000000002
 20
0.25
 30
0.0
 40
0.05
  0
CIRCLE
  5
218
330
216
100
AcDbEntity
  8
0
100
AcDbCircle
 10
0.2000000000000002
 20
0.25
 30
0.0
 40
0.14
  0
LINE
  5
219
330
216
100
AcDbEntity
  8
0
100
AcDbLine
 10
0.4000000000000004
 20
0.5
 30
0.0
 11
0.0
 21
0.5
 31
0.0
  0
LINE
  5
21A
330
216
100
AcDbEntity
  8
0
100
AcDbLine
 10
0.0
 20
0.0
 30
0.0
 11
0.4000000000000004
 21
0.0
 31
0.0
  0
LINE
  5
21B
330
216
100
AcDbEntity
  8
0
100
AcDbLine
 10
0.0
 20
0.5
 30
0.0
 11
0.0
 21
0.0
 31
0.0
  0
LINE
  5
21C
330
216
100
AcDbEntity
  8
0
100
AcDbLine
 10
0.4000000000000004
 20
0.0
 30
0.0
 11
0.4000000000000004
 21
0.5
 31
0.0
  0
LWPOLYLINE
  5
21D
330
216
100
AcDbEntity
  8
0
100
AcDbPolyline
 90
        2
 70
     0
 43
0.04
 10
0.1999999999999993
 20
0.3889214684942859
 10
0.1999999999999993
 20
0.4089214684942855
  0
LWPOLYLINE
  5
21E
330
216
100
AcDbEntity
  8
0
100
AcDbPolyline
 90
        2
 70
     0
 43
0.04
 10
0.1999999999999993
 20
0.091359469941648
 10
0.1999999999999993
 20
0.1113594699416476
  0
ENDBLK
  5
220
330
216
100
AcDbEntity
  8
0
100
AcDbBlockEnd
  0
BLOCK
  5
223
330
221
100
AcDbEntity
  8
0
100
AcDbBlockBegin
  2
GROUND
 70
     0
 10
0.0
 20
0.0
 30
0.0
  3
GROUND
  1

  0
INSERT
  5
222
330
221
100
AcDbEntity
  8
IFS_FIBER_OPTICS
100
AcDbBlockReference
  2
GROUND_SYMBOL
 10
-5.86997965411774
 20
-0.9957977040965531
 30
0.0
  0
ENDBLK
  5
224
330
221
100
AcDbEntity
  8
0
100
AcDbBlockEnd
  0
BLOCK
  5
232
330
225
100
AcDbEntity
  8
0
100
AcDbBlockBegin
  2
R3_SCREW_HEAD
 70
     0
 10
0.0
 20
0.0
 30
0.0
  3
R3_SCREW_HEAD
  1

  0
CIRCLE
  5
226
330
225
100
AcDbEntity
  8
0
100
AcDbCircle
 10
0.5
 20
4.936499999999999
 30
0.0
 40
0.1
  0
LINE
  5
227
330
225
100
AcDbEntity
  8
IFS_FIBER_OPTICS
100
AcDbLine
 10
0.4133974596215566
 20
4.826499999999999
 30
0.0
 11
0.5866025403784434
 21
4.826499999999999
 31
0.0
  0
LINE
  5
228
330
225
100
AcDbEntity
  8
IFS_FIBER_OPTICS
100
AcDbLine
 10
0.4133974596215566
 20
5.046499999999999
 30
0.0
 11
0.5866025403784434
 21
5.046499999999999
 31
0.0
  0
ARC
  5
229
330
225
100
AcDbEntity
  8
0
100
AcDbCircle
 10
0.5
 20
4.936499999999999
 30
0.0
 40
0.14
100
AcDbArc
 50
128.213210701738
 51
231.7867892982618
  0
ARC
  5
22A
330
225
100
AcDbEntity
  8
0
100
AcDbCircle
 10
0.5
 20
4.936499999999999
 30
0.0
 40
0.14
100
AcDbArc
 50
308.213210701738
 51
51.78678929826198
  0
LWPOLYLINE
  5
22B
330
225
100
AcDbEntity
  8
0
100
AcDbPolyline
 90
        2
 70
     0
 43
0.01
 10
0.4293126516414816
 20
5.005544342113727
 10
0.5651276523879006
 20
4.861106790713638
  0
LINE
  5
22C
330
225
100
AcDbEntity
  8
IFS_FIBER_OPTICS
100
AcDbLine
 10
0.4133974596215566
 20
0.2284999999999994
 30
0.0
 11
0.5866025403784434
 21
0.2284999999999996
 31
0.0
  0
LINE
  5
22D
330
225
100
AcDbEntity
  8
IFS_FIBER_OPTICS
100
AcDbLine
 10
0.4133974596215566
 20
0.0084999999999994
 30
0.0
 11
0.5866025403784434
 21
0.0084999999999994
 31
0.0
  0
CIRCLE
  5
22E
330
225
100
AcDbEntity
  8
0
100
AcDbCircle
 10
0.5
 20
0.1184999999999993
 30
0.0
 40
0.1
  0
ARC
  5
22F
330
225
100
AcDbEntity
  8
0
100
AcDbCircle
 10
0.5
 20
0.1184999999999993
 30
0.0
 40
0.14
100
AcDbArc
 50
128.213210701738
 51
231.7867892982618
  0
ARC
  5
230
330
225
100
AcDbEntity
  8
0
100
AcDbCircle
 10
0.5
 20
0.1184999999999993
 30
0.0
 40
0.14
100
AcDbArc
 50
308.213210701738
 51
51.78678929826198
  0
LWPOLYLINE
  5
231
330
225
100
AcDbEntity
  8
0
100
AcDbPolyline
 90
        2
 70
     0
 43
0.01
 10
0.4293126516414816
 20
0.1875443421137267
 10
0.5651276523879006
 20
0.0431067907136386
  0
ENDBLK
  5
233
330
225
100
AcDbEntity
  8
0
100
AcDbBlockEnd
  0
BLOCK
  5
238
330
234
100
AcDbEntity
  8
0
100
AcDbBlockBegin
  2
R3_1_INCH_REAR_SCREW
 70
     0
 10
0.0
 20
0.0
 30
0.0
  3
R3_1_INCH_REAR_SCREW
  1

  0
LWPOLYLINE
  5
235
330
234
100
AcDbEntity
  8
IFS_FIBER_OPTICS
100
AcDbPolyline
 90
        4
 70
     1
 43
0.0
 10
0.3825000000000003
 20
0.0519999999999996
 10
0.6174999999999998
 20
0.0519999999999996
 10
0.6174999999999998
 20
0.1849999999999987
 10
0.3825000000000003
 20
0.1849999999999987
  0
LWPOLYLINE
  5
236
330
234
100
AcDbEntity
  8
IFS_FIBER_OPTICS
100
AcDbPolyline
 90
        4
 70
     1
 43
0.0
 10
0.3825000000000003
 20
5.003
 10
0.6174999999999998
 20
5.003
 10
0.6174999999999998
 20
4.87
 10
0.3825000000000003
 20
4.87
  0
LWPOLYLINE
  5
237
330
234
100
AcDbEntity
  8
IFS_FIBER_OPTICS
100
AcDbPolyline
 90
        2
 70
     1
 43
0.0375
 10
0.4812499999999993
 20
4.936499999999998
 42
1.0
 10
0.5187500000000007
 20
4.936499999999998
 42
1.0
  0
ENDBLK
  5
239
330
234
100
AcDbEntity
  8
0
100
AcDbBlockEnd
  0
BLOCK
  5
32D
330
322
100
AcDbEntity
  8
0
100
AcDbBlockBegin
  2
*D18
 70
     1
 10
0.0
 20
0.0
 30
0.0
  3
*D18
  1

  0
LINE
  5
330
330
322
100
AcDbEntity
  8
0
 62
     0
100
AcDbLine
 10
9.417177731381014
 20
10.70791087664235
 30
0.0
 11
9.417177731381014
 21
11.70828152410528
 31
0.0
  0
LINE
  5
331
330
322
100
AcDbEntity
  8
0
 62
     0
100
AcDbLine
 10
16.44717773138101
 20
10.70791087664235
 30
0.0
 11
16.44717773138101
 21
11.70828152410528
 31
0.0
  0
LINE
  5
332
330
322
100
AcDbEntity
  8
0
 62
     0
100
AcDbLine
 10
9.597177731381014
 20
11.52828152410528
 30
0.0
 11
12.38384439804768
 21
11.52828152410528
 31
0.0
  0
LINE
  5
333
330
322
100
AcDbEntity
  8
0
 62
     0
100
AcDbLine
 10
16.26717773138101
 20
11.52828152410528
 30
0.0
 11
13.48051106471435
 21
11.52828152410528
 31
0.0
  0
SOLID
  5
334
330
322
100
AcDbEntity
  8
0
 62
     0
100
AcDbTrace
 10
9.597177731381014
 20
11.55828152410528
 30
0.0
 11
9.597177731381014
 21
11.49828152410528
 31
0.0
 12
9.417177731381014
 22
11.52828152410528
 32
0.0
 13
9.417177731381014
 23
11.52828152410528
 33
0.0
  0
SOLID
  5
335
330
322
100
AcDbEntity
  8
0
 62
     0
100
AcDbTrace
 10
16.26717773138101
 20
11.55828152410528
 30
0.0
 11
16.26717773138101
 21
11.49828152410528
 31
0.0
 12
16.44717773138101
 22
11.52828152410528
 32
0.0
 13
16.44717773138101
 23
11.52828152410528
 33
0.0
  0
MTEXT
  5
336
330
322
100
AcDbEntity
  8
0
 62
     0
100
AcDbMText
 10
12.93217773138101
 20
11.52828152410528
 30
0.0
 40
0.1
 41
0.0
 71
     5
 72
     1
  1
\A1;7.0 [178.56]
1001
ACAD
1000
MTEXTBEGIN
1070
    73
1070
     1
1070
    44
1040
1.0
1070
    74
1070
     0
1000
MTEXTEND
  0
POINT
  5
337
330
322
100
AcDbEntity
  8
DEFPOINTS
 62
     0
100
AcDbPoint
 10
9.417177731381014
 20
10.64541087664235
 30
0.0
  0
POINT
  5
338
330
322
100
AcDbEntity
  8
DEFPOINTS
 62
     0
100
AcDbPoint
 10
16.44717773138101
 20
10.64541087664235
 30
0.0
  0
POINT
  5
339
330
322
100
AcDbEntity
  8
DEFPOINTS
 62
     0
100
AcDbPoint
 10
16.44717773138101
 20
11.52828152410528
 30
0.0
  0
ENDBLK
  5
32E
330
322
100
AcDbEntity
  8
0
100
AcDbBlockEnd
  0
BLOCK
  5
347
330
33C
100
AcDbEntity
  8
0
100
AcDbBlockBegin
  2
*D19
 70
     1
 10
0.0
 20
0.0
 30
0.0
  3
*D19
  1

  0
LINE
  5
34A
330
33C
100
AcDbEntity
  8
0
 62
     0
100
AcDbLine
 10
10.17643363527683
 20
5.914116024477518
 30
0.0
 11
10.17643363527683
 21
4.842181891624054
 31
0.0
  0
LINE
  5
34B
330
33C
100
AcDbEntity
  8
0
 62
     0
100
AcDbLine
 10
15.67643363527683
 20
5.914116024477518
 30
0.0
 11
15.67643363527683
 21
4.842181891624054
 31
0.0
  0
LINE
  5
34C
330
33C
100
AcDbEntity
  8
0
 62
     0
100
AcDbLine
 10
10.35643363527683
 20
5.022181891624054
 30
0.0
 11
12.3781003019435
 21
5.022181891624054
 31
0.0
  0
LINE
  5
34D
330
33C
100
AcDbEntity
  8
0
 62
     0
100
AcDbLine
 10
15.49643363527683
 20
5.022181891624054
 30
0.0
 11
13.47476696861017
 21
5.022181891624054
 31
0.0
  0
SOLID
  5
34E
330
33C
100
AcDbEntity
  8
0
 62
     0
100
AcDbTrace
 10
10.35643363527683
 20
5.052181891624054
 30
0.0
 11
10.35643363527683
 21
4.992181891624054
 31
0.0
 12
10.17643363527683
 22
5.022181891624054
 32
0.0
 13
10.17643363527683
 23
5.022181891624054
 33
0.0
  0
SOLID
  5
34F
330
33C
100
AcDbEntity
  8
0
 62
     0
100
AcDbTrace
 10
15.49643363527683
 20
5.052181891624054
 30
0.0
 11
15.49643363527683
 21
4.992181891624054
 31
0.0
 12
15.67643363527683
 22
5.022181891624054
 32
0.0
 13
15.67643363527683
 23
5.022181891624054
 33
0.0
  0
MTEXT
  5
350
330
33C
100
AcDbEntity
  8
0
 62
     0
100
AcDbMText
 10
12.92643363527683
 20
5.022181891624054
 30
0.0
 40
0.1
 41
0.0
 71
     5
 72
     1
  1
\A1;5.5 [139.70]
1001
ACAD
1000
MTEXTBEGIN
1070
    73
1070
     1
1070
    44
1040
1.0
1070
    74
1070
     0
1000
MTEXTEND
  0
POINT
  5
351
330
33C
100
AcDbEntity
  8
DEFPOINTS
 62
     0
100
AcDbPoint
 10
10.17643363527683
 20
5.976616024477518
 30
0.0
  0
POINT
  5
352
330
33C
100
AcDbEntity
  8
DEFPOINTS
 62
     0
100
AcDbPoint
 10
15.67643363527683
 20
5.976616024477518
 30
0.0
  0
POINT
  5
353
330
33C
100
AcDbEntity
  8
DEFPOINTS
 62
     0
100
AcDbPoint
 10
15.67643363527683
 20
5.022181891624054
 30
0.0
  0
ENDBLK
  5
348
330
33C
100
AcDbEntity
  8
0
100
AcDbBlockEnd
  0
BLOCK
  5
361
330
356
100
AcDbEntity
  8
0
100
AcDbBlockBegin
  2
*D20
 70
     1
 10
0.0
 20
0.0
 30
0.0
  3
*D20
  1

  0
LINE
  5
364
330
356
100
AcDbEntity
  8
0
 62
     0
100
AcDbLine
 10
9.354677731381014
 20
10.14541087664236
 30
0.0
 11
8.685738866746646
 21
10.14541087664236
 31
0.0
  0
LINE
  5
365
330
356
100
AcDbEntity
  8
0
 62
     0
100
AcDbLine
 10
9.354677731381016
 20
6.265410876642356
 30
0.0
 11
8.685738866746646
 21
6.265410876642356
 31
0.0
  0
LINE
  5
366
330
356
100
AcDbEntity
  8
0
 62
     0
100
AcDbLine
 10
8.865738866746646
 20
9.965410876642359
 30
0.0
 11
8.865738866746646
 21
8.345410876642358
 31
0.0
  0
LINE
  5
367
330
356
100
AcDbEntity
  8
0
 62
     0
100
AcDbLine
 10
8.865738866746646
 20
6.445410876642355
 30
0.0
 11
8.865738866746646
 21
8.065410876642356
 31
0.0
  0
SOLID
  5
368
330
356
100
AcDbEntity
  8
0
 62
     0
100
AcDbTrace
 10
8.835738866746646
 20
9.965410876642359
 30
0.0
 11
8.895738866746645
 21
9.965410876642359
 31
0.0
 12
8.865738866746646
 22
10.14541087664236
 32
0.0
 13
8.865738866746646
 23
10.14541087664236
 33
0.0
  0
SOLID
  5
369
330
356
100
AcDbEntity
  8
0
 62
     0
100
AcDbTrace
 10
8.835738866746646
 20
6.445410876642355
 30
0.0
 11
8.895738866746645
 21
6.445410876642355
 31
0.0
 12
8.865738866746646
 22
6.265410876642356
 32
0.0
 13
8.865738866746646
 23
6.265410876642356
 33
0.0
  0
MTEXT
  5
36A
330
356
100
AcDbEntity
  8
0
 62
     0
100
AcDbMText
 10
8.865738866746644
 20
8.205410876642359
 30
0.0
 40
0.1
 41
0.0
 71
     5
 72
     1
  1
\A1;3.9 [98.55]
1001
ACAD
1000
MTEXTBEGIN
1070
    73
1070
     1
1070
    44
1040
1.0
1070
    74
1070
     0
1000
MTEXTEND
  0
POINT
  5
36B
330
356
100
AcDbEntity
  8
DEFPOINTS
 62
     0
100
AcDbPoint
 10
9.417177731381014
 20
10.14541087664236
 30
0.0
  0
POINT
  5
36C
330
356
100
AcDbEntity
  8
DEFPOINTS
 62
     0
100
AcDbPoint
 10
9.417177731381016
 20
6.265410876642356
 30
0.0
  0
POINT
  5
36D
330
356
100
AcDbEntity
  8
DEFPOINTS
 62
     0
100
AcDbPoint
 10
8.865738866746646
 20
6.265410876642356
 30
0.0
  0
ENDBLK
  5
362
330
356
100
AcDbEntity
  8
0
100
AcDbBlockEnd
  0
BLOCK
  5
37C
330
371
100
AcDbEntity
  8
0
100
AcDbBlockBegin
  2
*D21
 70
     1
 10
0.0
 20
0.0
 30
0.0
  3
*D21
  1

  0
LINE
  5
37F
330
371
100
AcDbEntity
  8
0
 62
     0
100
AcDbLine
 10
19.22332439543604
 20
10.67601755823128
 30
0.0
 11
18.43491019917035
 21
10.67601755823128
 31
0.0
  0
LINE
  5
380
330
371
100
AcDbEntity
  8
0
 62
     0
100
AcDbLine
 10
19.22332439543604
 20
5.621017558231287
 30
0.0
 11
18.43491019917035
 21
5.621017558231287
 31
0.0
  0
LINE
  5
381
330
371
100
AcDbEntity
  8
0
 62
     0
100
AcDbLine
 10
18.61491019917035
 20
10.49601755823128
 30
0.0
 11
18.61491019917035
 21
8.288517558231287
 31
0.0
  0
LINE
  5
382
330
371
100
AcDbEntity
  8
0
 62
     0
100
AcDbLine
 10
18.61491019917035
 20
5.801017558231286
 30
0.0
 11
18.61491019917035
 21
8.008517558231286
 31
0.0
  0
SOLID
  5
383
330
371
100
AcDbEntity
  8
0
 62
     0
100
AcDbTrace
 10
18.58491019917035
 20
10.49601755823128
 30
0.0
 11
18.64491019917035
 21
10.49601755823128
 31
0.0
 12
18.61491019917035
 22
10.67601755823128
 32
0.0
 13
18.61491019917035
 23
10.67601755823128
 33
0.0
  0
SOLID
  5
384
330
371
100
AcDbEntity
  8
0
 62
     0
100
AcDbTrace
 10
18.58491019917035
 20
5.801017558231286
 30
0.0
 11
18.64491019917035
 21
5.801017558231286
 31
0.0
 12
18.61491019917035
 22
5.621017558231287
 32
0.0
 13
18.61491019917035
 23
5.621017558231287
 33
0.0
  0
MTEXT
  5
385
330
371
100
AcDbEntity
  8
0
 62
     0
100
AcDbMText
 10
18.61491019917035
 20
8.148517558231288
 30
0.0
 40
0.1
 41
0.0
 71
     5
 72
     1
  1
\A1;5.1 [128.40]
1001
ACAD
1000
MTEXTBEGIN
1070
    73
1070
     1
1070
    44
1040
1.0
1070
    74
1070
     0
1000
MTEXTEND
  0
POINT
  5
386
330
371
100
AcDbEntity
  8
DEFPOINTS
 62
     0
100
AcDbPoint
 10
19.28582439543604
 20
10.67601755823128
 30
0.0
  0
POINT
  5
387
330
371
100
AcDbEntity
  8
DEFPOINTS
 62
     0
100
AcDbPoint
 10
19.28582439543604
 20
5.621017558231287
 30
0.0
  0
POINT
  5
388
330
371
100
AcDbEntity
  8
DEFPOINTS
 62
     0
100
AcDbPoint
 10
18.61491019917035
 20
5.621017558231287
 30
0.0
  0
ENDBLK
  5
37D
330
371
100
AcDbEntity
  8
0
100
AcDbBlockEnd
  0
BLOCK
  5
38F
330
38E
100
AcDbEntity
  8
0
100
AcDbBlockBegin
  2
LTC4642
 70
     0
 10
0.0
 20
0.0
 30
0.0
  3
LTC4642
  1

  0
MTEXT
  5
391
330
38E
100
AcDbEntity
  8
0
100
AcDbMText
 10
21.30628343928671
 20
5.511079549566922
 30
0.0
 40
0.1
 41
0.5646238364342424
 71
     1
 72
     5
  1
Rear
1001
ACAD
1000
MTEXTBEGIN
1070
    73
1070
     1
1070
    44
1040
1.0
1070
    74
1070
     0
1000
MTEXTEND
  0
MTEXT
  5
392
330
38E
100
AcDbEntity
  8
0
100
AcDbMText
 10
19.53712882783678
 20
5.492275818476716
 30
0.0
 40
0.1
 41
0.5987892164382089
 71
     1
 72
     5
  1
Front
1001
ACAD
1000
MTEXTBEGIN
1070
    73
1070
     1
1070
    44
1040
1.0
1070
    74
1070
     0
1000
MTEXTEND
  0
MTEXT
  5
393
330
38E
100
AcDbEntity
  8
0
100
AcDbMText
 10
18.29495643330786
 20
4.683714312905181
 30
0.0
 40
0.2
 41
0.0
 71
     1
 72
     5
  1
LTC 4642/00 Rack Mount\P Video Receiver Module 
1001
ACAD
1000
MTEXTBEGIN
1070
    73
1070
     1
1070
    44
1040
1.0
1070
    74
1070
     0
1000
MTEXTEND
  0
MTEXT
  5
394
330
38E
100
AcDbEntity
  8
0
100
AcDbMText
 10
10.40904398924929
 20
4.15720910896287
 30
0.0
 40
0.2
 41
5.2
 71
     1
 72
     5
  1
LTC 4642/60 Video Receiver
1001
ACAD
1000
MTEXTBEGIN
1070
    73
1070
     1
1070
    44
1040
1.0
1070
    74
1070
     0
1000
MTEXTEND
  0
DIMENSION
  5
395
102
{ACAD_XDICTIONARY
360
396
102
}
102
{ACAD_REACTORS
330
397
102
}
330
38E
100
AcDbEntity
  8
0
100
AcDbDimension
  2
*D21
 10
18.61491019917035
 20
5.621017558231287
 30
0.0
 11
18.61491019917035
 21
8.148517558231288
 31
0.0
  3
STANDARD
100
AcDbAlignedDimension
 13
19.28582439543604
 23
10.67601755823128
 33
0.0
 14
19.28582439543604
 24
5.621017558231287
 34
0.0
 50
90.0
100
AcDbRotatedDimension
  0
MTEXT
  5
398
330
38E
100
AcDbEntity
  8
0
100
AcDbMText
 10
5.101580109273086
 20
5.79313589310566
 30
0.0
 40
0.1
 41
0.0
 71
     1
 72
     5
  1
LTC 4641/60 Video Transmitter
1001
ACAD
1000
MTEXTBEGIN
1070
    73
1070
     1
1070
    44
1040
1.0
1070
    74
1070
     0
1000
MTEXTEND
  0
DIMENSION
  5
399
102
{ACAD_XDICTIONARY
360
39A
102
}
102
{ACAD_REACTORS
330
39B
102
}
330
38E
100
AcDbEntity
  8
0
100
AcDbDimension
  2
*D20
 10
8.865738866746646
 20
6.265410876642356
 30
0.0
 11
8.865738866746644
 21
8.205410876642359
 31
0.0
  3
STANDARD
100
AcDbAlignedDimension
 13
9.417177731381014
 23
10.14541087664236
 33
0.0
 14
9.417177731381016
 24
6.265410876642356
 34
0.0
 50
90.0
100
AcDbRotatedDimension
  0
DIMENSION
  5
39C
102
{ACAD_XDICTIONARY
360
39D
102
}
102
{ACAD_REACTORS
330
39E
102
}
330
38E
100
AcDbEntity
  8
0
100
AcDbDimension
  2
*D19
 10
15.67643363527683
 20
5.022181891624054
 30
0.0
 11
12.92643363527683
 21
5.022181891624054
 31
0.0
  3
STANDARD
100
AcDbAlignedDimension
 13
10.17643363527683
 23
5.976616024477518
 33
0.0
 14
15.67643363527683
 24
5.976616024477518
 34
0.0
100
AcDbRotatedDimension
  0
DIMENSION
  5
39F
102
{ACAD_XDICTIONARY
360
3A0
102
}
102
{ACAD_REACTORS
330
3A1
102
}
330
38E
100
AcDbEntity
  8
0
100
AcDbDimension
  2
*D18
 10
16.44717773138101
 20
11.52828152410528
 30
0.0
 11
12.93217773138101
 21
11.52828152410528
 31
0.0
  3
STANDARD
100
AcDbAlignedDimension
 13
9.417177731381014
 23
10.64541087664235
 33
0.0
 14
16.44717773138101
 24
10.64541087664235
 34
0.0
100
AcDbRotatedDimension
  0
LINE
  5
3A2
330
38E
100
AcDbEntity
  8
0
100
AcDbLine
 10
21.06982096535273
 20
5.573293362839434
 30
0.0
 11
22.04982096535273
 21
5.573293362839434
 31
0.0
  0
LINE
  5
3A3
330
38E
100
AcDbEntity
  8
IFS_FIBER_OPTICS
100
AcDbLine
 10
15.7926919683115
 20
10.53461602447752
 30
0.0
 11
15.92643363527683
 21
10.53461602447752
 31
0.0
  0
ARC
  5
3A4
330
38E
100
AcDbEntity
  8
IFS_FIBER_OPTICS
100
AcDbCircle
 10
15.67643363527683
 20
10.45661602447751
 30
0.0
 40
0.14
100
AcDbArc
 50
33.85843665945616
 51
146.1415633405438
  0
LINE
  5
3A5
330
38E
100
AcDbEntity
  8
IFS_FIBER_OPTICS
100
AcDbLine
 10
15.7926919683115
 20
10.37861602447752
 30
0.0
 11
15.92643363527683
 21
10.37861602447752
 31
0.0
  0
ARC
  5
3A6
330
38E
100
AcDbEntity
  8
IFS_FIBER_OPTICS
100
AcDbCircle
 10
15.67643363527683
 20
10.45661602447751
 30
0.0
 40
0.14
100
AcDbArc
 50
213.8584366594589
 51
326.1415633405438
  0
ARC
  5
3A7
330
38E
100
AcDbEntity
  8
IFS_FIBER_OPTICS
100
AcDbCircle
 10
15.92643363527683
 20
10.45661602447751
 30
0.0
 40
0.078
100
AcDbArc
 50
270.0
 51
90.0
  0
ARC
  5
3A8
330
38E
100
AcDbEntity
  8
IFS_FIBER_OPTICS
100
AcDbCircle
 10
15.42643363527683
 20
10.45661602447751
 30
0.0
 40
0.078
100
AcDbArc
 50
90.0
 51
270.0
  0
LINE
  5
3A9
330
38E
100
AcDbEntity
  8
IFS_FIBER_OPTICS
100
AcDbLine
 10
15.42643363527683
 20
10.37861602447752
 30
0.0
 11
15.56017530224216
 21
10.37861602447752
 31
0.0
  0
LINE
  5
3AA
330
38E
100
AcDbEntity
  8
IFS_FIBER_OPTICS
100
AcDbLine
 10
15.42643363527683
 20
10.53461602447752
 30
0.0
 11
15.56017530224216
 21
10.53461602447752
 31
0.0
  0
MTEXT
  5
3AB
330
38E
100
AcDbEntity
  8
IFS_FIBER_OPTICS
100
AcDbMText
 10
15.56441491734061
 20
9.457629414995089
 30
0.0
 40
0.1
 41
1.4435
 71
     4
 72
     5
  1
{\fArial|b0|i0|c0|p34;OPTICAL IN}
1001
ACAD
1000
MTEXTBEGIN
1070
    73
1070
     1
1070
    44
1040
1.0
1070
    74
1070
     0
1000
MTEXTEND
  0
INSERT
  5
3AC
330
38E
100
AcDbEntity
  8
IFS_FIBER_OPTICS
100
AcDbBlockReference
  2
ST_CONN
 10
10.85196159469001
 20
5.939623103195216
 30
0.0
  0
MTEXT
  5
3AD
330
38E
100
AcDbEntity
  8
IFS_FIBER_OPTICS
100
AcDbMText
 10
15.64475020386832
 20
7.582629414995091
 30
0.0
 40
0.1
 41
1.4435
 71
     4
 72
     5
  1
{\fArial|b0|i0|c0|p34;VIDEO OUT}
1001
ACAD
1000
MTEXTBEGIN
1070
    73
1070
     1
1070
    44
1040
1.0
1070
    74
1070
     0
1000
MTEXTEND
  0
INSERT
  5
3AE
330
38E
100
AcDbEntity
  8
IFS_FIBER_OPTICS
100
AcDbBlockReference
  2
BNC
 10
16.44717773138101
 20
7.398720330782989
 30
0.0
  0
INSERT
  5
3AF
330
38E
100
AcDbEntity
  8
IFS_FIBER_OPTICS
100
AcDbBlockReference
  2
GROUND
 10
16.23713730071549
 20
6.657519817924423
 30
0.0
  0
LINE
  5
3B0
330
38E
100
AcDbEntity
  8
IFS_FIBER_OPTICS
100
AcDbLine
 10
15.7926919683115
 20
6.054616024477519
 30
0.0
 11
15.92643363527683
 21
6.054616024477521
 31
0.0
  0
LINE
  5
3B1
330
38E
100
AcDbEntity
  8
IFS_FIBER_OPTICS
100
AcDbLine
 10
15.7926919683115
 20
5.898616024477519
 30
0.0
 11
15.92643363527683
 21
5.898616024477519
 31
0.0
  0
ARC
  5
3B2
330
38E
100
AcDbEntity
  8
IFS_FIBER_OPTICS
100
AcDbCircle
 10
15.92643363527683
 20
5.976616024477518
 30
0.0
 40
0.078
100
AcDbArc
 50
270.0
 51
90.0
  0
ARC
  5
3B3
330
38E
100
AcDbEntity
  8
IFS_FIBER_OPTICS
100
AcDbCircle
 10
15.67643363527683
 20
5.976616024477518
 30
0.0
 40
0.14
100
AcDbArc
 50
33.85843665945616
 51
146.1415633405438
  0
MTEXT
  5
3B4
330
38E
100
AcDbEntity
  8
IFS_FIBER_OPTICS
100
AcDbMText
 10
15.65345807766451
 20
6.588757136344389
 30
0.0
 40
0.1
 41
1.0076
 71
     4
 72
     5
  1
{\fArial|b0|i0|c0|p34;                -2\P +12 VDC-1}
1001
ACAD
1000
MTEXTBEGIN
1070
    73
1070
     1
1070
    44
1040
1.0
1070
    74
1070
     0
1000
MTEXTEND
  0
LWPOLYLINE
  5
3B5
330
38E
100
AcDbEntity
  8
IFS_FIBER_OPTICS
100
AcDbPolyline
 90
        4
 70
     0
 43
0.01
 10
15.661405562155
 20
6.736901741502258
 10
15.56357104859996
 20
6.736901741502258
 10
15.56357104859996
 20
6.4436241157889
 10
15.661405562155
 20
6.4436241157889
  0
LWPOLYLINE
  5
3B6
330
38E
100
AcDbEntity
  8
IFS_FIBER_OPTICS
100
AcDbPolyline
 90
        2
 70
     0
 43
0.01
 10
15.4892167918849
 20
6.590330643026476
 10
15.56038164467081
 20
6.590330643026476
  0
INSERT
  5
3B7
330
38E
100
AcDbEntity
  8
IFS_FIBER_OPTICS
100
AcDbBlockReference
  2
LARGE_2_PIN
 10
10.9288442218225
 20
5.753524578686258
 30
0.0
  0
ARC
  5
3B8
102
{ACAD_REACTORS
330
39E
102
}
330
38E
100
AcDbEntity
  8
IFS_FIBER_OPTICS
100
AcDbCircle
 10
15.67643363527683
 20
5.976616024477518
 30
0.0
 40
0.14
100
AcDbArc
 50
213.8584366594589
 51
326.1415633405438
  0
ARC
  5
3B9
330
38E
100
AcDbEntity
  8
IFS_FIBER_OPTICS
100
AcDbCircle
 10
15.42643363527683
 20
5.976616024477518
 30
0.0
 40
0.078
100
AcDbArc
 50
90.0
 51
270.0
  0
MTEXT
  5
3BA
330
38E
100
AcDbEntity
  8
IFS_FIBER_OPTICS
100
AcDbMText
 10
15.20993280822541
 20
6.588757136344389
 30
0.0
 40
0.1
 41
1.0076
 71
     5
 72
     5
  1
{\fArial|b0|i0|c0|p34;POWER}
1001
ACAD
1000
MTEXTBEGIN
1070
    73
1070
     1
1070
    44
1040
1.0
1070
    74
1070
     0
1000
MTEXTEND
  0
LINE
  5
3BB
330
38E
100
AcDbEntity
  8
IFS_FIBER_OPTICS
100
AcDbLine
 10
15.42643363527683
 20
5.898616024477519
 30
0.0
 11
15.56017530224216
 21
5.898616024477519
 31
0.0
  0
LINE
  5
3BC
330
38E
100
AcDbEntity
  8
IFS_FIBER_OPTICS
100
AcDbLine
 10
15.42643363527683
 20
6.054616024477519
 30
0.0
 11
15.56017530224216
 21
6.054616024477519
 31
0.0
  0
LINE
  5
3BD
330
38E
100
AcDbEntity
  8
0
100
AcDbLine
 10
21.98782096535273
 20
9.717459997707207
 30
0.0
 11
21.98782096535273
 21
10.05029336283943
 31
0.0
  0
LINE
  5
3BE
330
38E
100
AcDbEntity
  8
0
100
AcDbLine
 10
21.9853112372167
 20
9.760293362839433
 30
0.0
 11
21.9853112372167
 21
9.920293362839434
 31
0.0
  0
LINE
  5
3BF
330
38E
100
AcDbEntity
  8
IFS_FIBER_OPTICS
100
AcDbLine
 10
16.44717773138101
 20
5.765410876642356
 30
0.0
 11
16.44717773138101
 21
10.64541087664235
 31
0.0
  0
LINE
  5
3C0
330
38E
100
AcDbEntity
  8
0
100
AcDbLine
 10
21.9853112372167
 20
6.272293362839434
 30
0.0
 11
21.9853112372167
 21
6.432293362839434
 31
0.0
  0
LINE
  5
3C1
330
38E
100
AcDbEntity
  8
0
100
AcDbLine
 10
22.04982096535273
 20
5.573293362839434
 30
0.0
 11
22.04982096535273
 21
10.62829336283943
 31
0.0
  0
LINE
  5
3C2
330
38E
100
AcDbEntity
  8
0
100
AcDbLine
 10
21.98782096535273
 20
10.05029336283943
 30
0.0
 11
21.98782096535273
 21
6.150293362839434
 31
0.0
  0
SOLID
  5
3C3
330
38E
100
AcDbEntity
  8
0
100
AcDbTrace
 10
21.98782096535273
 20
10.05029336283943
 30
0.0
 11
21.98782096535273
 21
6.150293362839434
 31
0.0
 12
22.04982096535273
 22
10.05029336283943
 32
0.0
 13
22.04982096535273
 23
6.150293362839432
 33
0.0
  0
LINE
  5
3C4
330
38E
100
AcDbEntity
  8
IFS_FIBER_OPTICS
100
AcDbLine
 10
10.2926919683115
 20
10.53461602447752
 30
0.0
 11
10.42643363527683
 21
10.53461602447752
 31
0.0
  0
LINE
  5
3C5
330
38E
100
AcDbEntity
  8
IFS_FIBER_OPTICS
100
AcDbLine
 10
10.2926919683115
 20
10.37861602447752
 30
0.0
 11
10.42643363527683
 21
10.37861602447752
 31
0.0
  0
ARC
  5
3C6
330
38E
100
AcDbEntity
  8
IFS_FIBER_OPTICS
100
AcDbCircle
 10
10.42643363527683
 20
10.45661602447751
 30
0.0
 40
0.078
100
AcDbArc
 50
270.0
 51
90.0
  0
LINE
  5
3C7
330
38E
100
AcDbEntity
  8
IFS_FIBER_OPTICS
100
AcDbLine
 10
9.926433635276834
 20
10.53461602447752
 30
0.0
 11
10.06017530224216
 21
10.53461602447752
 31
0.0
  0
LINE
  5
3C8
330
38E
100
AcDbEntity
  8
IFS_FIBER_OPTICS
100
AcDbLine
 10
9.926433635276834
 20
10.37861602447752
 30
0.0
 11
10.06017530224216
 21
10.37861602447752
 31
0.0
  0
ARC
  5
3C9
330
38E
100
AcDbEntity
  8
IFS_FIBER_OPTICS
100
AcDbCircle
 10
9.926433635276834
 20
10.45661602447751
 30
0.0
 40
0.078
100
AcDbArc
 50
90.0
 51
270.0
  0
ARC
  5
3CA
330
38E
100
AcDbEntity
  8
IFS_FIBER_OPTICS
100
AcDbCircle
 10
10.17643363527683
 20
10.45661602447751
 30
0.0
 40
0.14
100
AcDbArc
 50
213.8584366594589
 51
326.1415633405438
  0
ARC
  5
3CB
330
38E
100
AcDbEntity
  8
IFS_FIBER_OPTICS
100
AcDbCircle
 10
10.17643363527683
 20
10.45661602447751
 30
0.0
 40
0.14
100
AcDbArc
 50
33.85843665945616
 51
146.1415633405438
  0
MTEXT
  5
3CC
330
38E
100
AcDbEntity
  8
IFS_FIBER_OPTICS
100
AcDbMText
 10
9.494592990304075
 20
7.761593426988929
 30
0.0
 40
0.1
 41
0.0
 71
     1
 72
     5
  1
{\fArial|b0|i0|c0|p34;AGC}
1001
ACAD
1000
MTEXTBEGIN
1070
    73
1070
     1
1070
    44
1040
1.0
1070
    74
1070
     0
1000
MTEXTEND
  0
MTEXT
  5
3CD
330
38E
100
AcDbEntity
  8
IFS_FIBER_OPTICS
100
AcDbMText
 10
9.494592990304075
 20
8.261593426988929
 30
0.0
 40
0.1
 41
1.4435
 71
     1
 72
     5
  1
{\fArial|b0|i0|c0|p34;AGC LEVEL}
1001
ACAD
1000
MTEXTBEGIN
1070
    73
1070
     1
1070
    44
1040
1.0
1070
    74
1070
     0
1000
MTEXTEND
  0
MTEXT
  5
3CE
330
38E
100
AcDbEntity
  8
IFS_FIBER_OPTICS
100
AcDbMText
 10
9.494592990304075
 20
8.761593426988929
 30
0.0
 40
0.1
 41
1.4435
 71
     1
 72
     5
  1
{\fArial|b0|i0|c0|p34;VIDEO OUT}
1001
ACAD
1000
MTEXTBEGIN
1070
    73
1070
     1
1070
    44
1040
1.0
1070
    74
1070
     0
1000
MTEXTEND
  0
ARC
  5
3CF
330
38E
100
AcDbEntity
  8
IFS_FIBER_OPTICS
100
AcDbCircle
 10
10.42643363527683
 20
5.976616024477518
 30
0.0
 40
0.078
100
AcDbArc
 50
270.0
 51
90.0
  0
LINE
  5
3D0
330
38E
100
AcDbEntity
  8
IFS_FIBER_OPTICS
100
AcDbLine
 10
10.2926919683115
 20
5.898616024477519
 30
0.0
 11
10.42643363527683
 21
5.898616024477519
 31
0.0
  0
LINE
  5
3D1
330
38E
100
AcDbEntity
  8
IFS_FIBER_OPTICS
100
AcDbLine
 10
10.2926919683115
 20
6.054616024477519
 30
0.0
 11
10.42643363527683
 21
6.054616024477521
 31
0.0
  0
ARC
  5
3D2
330
38E
100
AcDbEntity
  8
IFS_FIBER_OPTICS
100
AcDbCircle
 10
9.926433635276834
 20
5.976616024477518
 30
0.0
 40
0.078
100
AcDbArc
 50
90.0
 51
270.0
  0
LINE
  5
3D3
330
38E
100
AcDbEntity
  8
IFS_FIBER_OPTICS
100
AcDbLine
 10
9.926433635276834
 20
6.054616024477519
 30
0.0
 11
10.06017530224216
 21
6.054616024477519
 31
0.0
  0
LINE
  5
3D4
330
38E
100
AcDbEntity
  8
IFS_FIBER_OPTICS
100
AcDbLine
 10
9.926433635276834
 20
5.898616024477519
 30
0.0
 11
10.06017530224216
 21
5.898616024477519
 31
0.0
  0
ARC
  5
3D5
330
38E
100
AcDbEntity
  8
IFS_FIBER_OPTICS
100
AcDbCircle
 10
10.17643363527683
 20
5.976616024477518
 30
0.0
 40
0.14
100
AcDbArc
 50
33.85843665945616
 51
146.1415633405438
  0
MTEXT
  5
3D6
330
38E
100
AcDbEntity
  8
IFS_FIBER_OPTICS
100
AcDbMText
 10
9.494592990304075
 20
7.261593426988929
 30
0.0
 40
0.1
 41
1.4435
 71
     1
 72
     5
  1
{\fArial|b0|i0|c0|p34;POWER}
1001
ACAD
1000
MTEXTBEGIN
1070
    73
1070
     1
1070
    44
1040
1.0
1070
    74
1070
     0
1000
MTEXTEND
  0
ARC
  5
3D7
102
{ACAD_REACTORS
330
39E
102
}
330
38E
100
AcDbEntity
  8
IFS_FIBER_OPTICS
100
AcDbCircle
 10
10.17643363527683
 20
5.976616024477518
 30
0.0
 40
0.14
100
AcDbArc
 50
213.8584366594589
 51
326.1415633405438
  0
INSERT
  5
3D8
330
38E
100
AcDbEntity
  8
IFS_FIBER_OPTICS
100
AcDbBlockReference
  2
ST_CONN_FRONT
 10
21.31910401214749
 20
9.09771121077094
 30
0.0
  0
LINE
  5
3D9
330
38E
100
AcDbEntity
  8
0
100
AcDbLine
 10
21.79982096535273
 20
10.05029336283943
 30
0.0
 11
21.79982096535273
 21
9.717459997707207
 31
0.0
  0
LINE
  5
3DA
330
38E
100
AcDbEntity
  8
0
100
AcDbLine
 10
21.80312131924433
 20
9.920293362839432
 30
0.0
 11
21.80312131924433
 21
9.760293362839433
 31
0.0
  0
MTEXT
  5
3DB
330
38E
100
AcDbEntity
  8
IFS_FIBER_OPTICS
100
AcDbMText
 10
19.7799921989831
 20
10.26407177906283
 30
0.0
 40
0.095
 41
0.0
 71
     5
 72
     5
  1
{\fArial|b0|i0|c0|p34;VIDEO\PRECEIVER}
1001
ACAD
1000
MTEXTBEGIN
1070
    73
1070
     1
1070
    44
1040
1.0
1070
    74
1070
     0
1000
MTEXTEND
  0
LINE
  5
3DC
330
38E
100
AcDbEntity
  8
0
100
AcDbLine
 10
20.26582439543604
 20
10.67601755823128
 30
0.0
 11
19.28582439543604
 21
10.67601755823128
 31
0.0
  0
CIRCLE
  5
3DD
330
38E
100
AcDbEntity
  8
IFS_FIBER_OPTICS
100
AcDbCircle
 10
19.74782439543604
 20
8.648517558231286
 30
0.0
 40
0.078
  0
LWPOLYLINE
  5
3DE
330
38E
100
AcDbEntity
  8
IFS_FIBER_OPTICS
100
AcDbPolyline
 90
        2
 70
     1
 43
0.078
 10
19.70882439543603
 20
8.648517558231286
 42
1.0
 10
19.78682439543604
 20
8.648517558231286
 42
1.0
  0
MTEXT
  5
3DF
330
38E
100
AcDbEntity
  8
IFS_FIBER_OPTICS
100
AcDbMText
 10
19.75179187675658
 20
8.989814870457429
 30
0.0
 40
0.1
 41
0.6699000000000001
 71
     5
 72
     5
  1
{\fArial|b0|i0|c0|p34;VIDEO\POUT}
1001
ACAD
1000
MTEXTBEGIN
1070
    73
1070
     1
1070
    44
1040
1.0
1070
    74
1070
     0
1000
MTEXTEND
  0
LINE
  5
3E0
330
38E
100
AcDbEntity
  8
IFS_FIBER_OPTICS
100
AcDbLine
 10
9.417177731381014
 20
10.64541087664235
 30
0.0
 11
9.417177731381016
 21
5.765410876642356
 31
0.0
  0
INSERT
  5
3E1
330
38E
100
AcDbEntity
  8
IFS_FIBER_OPTICS
100
AcDbBlockReference
  2
BNC_FEMALE_FRONT
 10
21.12222619038415
 20
7.192792351389316
 30
0.0
  0
LINE
  5
3E2
330
38E
100
AcDbEntity
  8
0
100
AcDbLine
 10
21.80312131924432
 20
6.432293362839432
 30
0.0
 11
21.80312131924432
 21
6.272293362839434
 31
0.0
  0
MTEXT
  5
3E3
330
38E
100
AcDbEntity
  8
IFS_FIBER_OPTICS
100
AcDbMText
 10
19.82910112458772
 20
8.398018870115755
 30
0.0
 40
0.1
 41
0.6699000000000001
 71
     5
 72
     5
  1
{\fArial|b0|i0|c0|p34;AGC}
1001
ACAD
1000
MTEXTBEGIN
1070
    73
1070
     1
1070
    44
1040
1.0
1070
    74
1070
     0
1000
MTEXTEND
  0
CIRCLE
  5
3E4
330
38E
100
AcDbEntity
  8
IFS_FIBER_OPTICS
100
AcDbCircle
 10
19.81532792272018
 20
8.148499776359827
 30
0.0
 40
0.125
  0
LWPOLYLINE
  5
3E5
330
38E
100
AcDbEntity
  8
IFS_FIBER_OPTICS
100
AcDbPolyline
 90
        2
 70
     1
 43
0.125
 10
19.75282792272018
 20
8.148499776359827
 42
1.0
 10
19.87782792272018
 20
8.148499776359827
 42
1.0
  0
CIRCLE
  5
3E6
330
38E
100
AcDbEntity
  8
IFS_FIBER_OPTICS
100
AcDbCircle
 10
19.74782439543604
 20
7.648517558231286
 30
0.0
 40
0.078
  0
LWPOLYLINE
  5
3E7
330
38E
100
AcDbEntity
  8
IFS_FIBER_OPTICS
100
AcDbPolyline
 90
        2
 70
     1
 43
0.078
 10
19.70882439543603
 20
7.648517558231286
 42
1.0
 10
19.78682439543604
 20
7.648517558231286
 42
1.0
  0
MTEXT
  5
3E8
330
38E
100
AcDbEntity
  8
IFS_FIBER_OPTICS
100
AcDbMText
 10
19.75179187675658
 20
7.408770653997841
 30
0.0
 40
0.1
 41
0.6699000000000001
 71
     5
 72
     5
  1
{\fArial|b0|i0|c0|p34;AGC}
1001
ACAD
1000
MTEXTBEGIN
1070
    73
1070
     1
1070
    44
1040
1.0
1070
    74
1070
     0
1000
MTEXTEND
  0
MTEXT
  5
3E9
330
38E
100
AcDbEntity
  8
IFS_FIBER_OPTICS
100
AcDbMText
 10
19.82910112458772
 20
7.908770653997841
 30
0.0
 40
0.1
 41
0.6699000000000001
 71
     5
 72
     5
  1
{\fArial|b0|i0|c0|p34;LEVEL}
1001
ACAD
1000
MTEXTBEGIN
1070
    73
1070
     1
1070
    44
1040
1.0
1070
    74
1070
     0
1000
MTEXTEND
  0
LINE
  5
3EA
330
38E
100
AcDbEntity
  8
0
100
AcDbLine
 10
20.25082439543604
 20
5.898017558231287
 30
0.0
 11
20.25082439543604
 21
6.498017558231287
 31
0.0
  0
LINE
  5
3EB
330
38E
100
AcDbEntity
  8
0
100
AcDbLine
 10
19.30082439543604
 20
6.498017558231287
 30
0.0
 11
19.30082439543604
 21
5.898017558231287
 31
0.0
  0
MTEXT
  5
3EC
330
38E
100
AcDbEntity
  8
0
100
AcDbMText
 10
19.25152918042315
 20
6.283435908424265
 30
0.0
 40
0.1
 41
0.0
 71
     1
 72
     5
  1
{\fArial|b0|i0|c0|p34;   LTC 4642/00}
1001
ACAD
1000
MTEXTBEGIN
1070
    73
1070
     1
1070
    44
1040
1.0
1070
    74
1070
     0
1000
MTEXTEND
  0
MTEXT
  5
3ED
330
38E
100
AcDbEntity
  8
IFS_FIBER_OPTICS
100
AcDbMText
 10
19.75179187675658
 20
6.908770653997841
 30
0.0
 40
0.1
 41
0.6699000000000001
 71
     5
 72
     5
  1
{\fArial|b0|i0|c0|p34;POWER}
1001
ACAD
1000
MTEXTBEGIN
1070
    73
1070
     1
1070
    44
1040
1.0
1070
    74
1070
     0
1000
MTEXTEND
  0
LINE
  5
3EE
330
38E
100
AcDbEntity
  8
0
100
AcDbLine
 10
19.30082439543604
 20
5.898017558231287
 30
0.0
 11
20.25082439543604
 21
5.898017558231287
 31
0.0
  0
LINE
  5
3EF
330
38E
100
AcDbEntity
  8
0
100
AcDbLine
 10
20.25082439543604
 20
6.498017558231287
 30
0.0
 11
19.30082439543604
 21
6.498017558231287
 31
0.0
  0
CIRCLE
  5
3F0
330
38E
100
AcDbEntity
  8
IFS_FIBER_OPTICS
100
AcDbCircle
 10
19.74782439543604
 20
7.148517558231286
 30
0.0
 40
0.078
  0
LWPOLYLINE
  5
3F1
330
38E
100
AcDbEntity
  8
IFS_FIBER_OPTICS
100
AcDbPolyline
 90
        2
 70
     1
 43
0.078
 10
19.70882439543603
 20
7.148517558231286
 42
1.0
 10
19.78682439543604
 20
7.148517558231286
 42
1.0
  0
LINE
  5
3F2
330
38E
100
AcDbEntity
  8
0
100
AcDbLine
 10
19.28582439543604
 20
5.621017558231287
 30
0.0
 11
20.26582439543604
 21
5.621017558231287
 31
0.0
  0
LINE
  5
3F3
330
38E
100
AcDbEntity
  8
0
100
AcDbLine
 10
21.06982096535273
 20
5.573293362839434
 30
0.0
 11
21.06982096535273
 21
10.62829336283943
 31
0.0
  0
LINE
  5
3F4
330
38E
100
AcDbEntity
  8
0
100
AcDbLine
 10
21.79982096535273
 20
6.150293362839434
 30
0.0
 11
21.79982096535273
 21
10.05029336283943
 31
0.0
  0
LINE
  5
3F5
330
38E
100
AcDbEntity
  8
0
100
AcDbLine
 10
21.72982096535273
 20
6.150293362839434
 30
0.0
 11
21.72982096535273
 21
10.05029336283943
 31
0.0
  0
SOLID
  5
3F6
330
38E
100
AcDbEntity
  8
0
100
AcDbTrace
 10
21.72982096535273
 20
10.05029336283943
 30
0.0
 11
21.72982096535273
 21
6.150293362839434
 31
0.0
 12
21.79982096535273
 22
10.05029336283943
 32
0.0
 13
21.79982096535273
 23
6.150293362839434
 33
0.0
  0
SOLID
  5
3F7
330
38E
100
AcDbEntity
  8
0
100
AcDbTrace
 10
21.72982096535273
 20
10.05029336283943
 30
0.0
 11
21.72982096535273
 21
6.150293362839434
 31
0.0
 12
21.79982096535273
 22
10.05029336283943
 32
0.0
 13
21.79982096535273
 23
6.150293362839434
 33
0.0
  0
LINE
  5
3F8
102
{ACAD_REACTORS
330
397
102
}
330
38E
100
AcDbEntity
  8
0
100
AcDbLine
 10
19.28582439543604
 20
10.67601755823128
 30
0.0
 11
19.28582439543604
 21
5.621017558231287
 31
0.0
  0
LINE
  5
3F9
330
38E
100
AcDbEntity
  8
0
100
AcDbLine
 10
20.26582439543604
 20
5.621017558231287
 30
0.0
 11
20.26582439543604
 21
10.67601755823128
 31
0.0
  0
INSERT
  5
3FA
330
38E
100
AcDbEntity
  8
IFS_FIBER_OPTICS
100
AcDbBlockReference
  2
R3_SCREW_HEAD
 10
19.28582439543604
 20
5.621017558231287
 30
0.0
  0
INSERT
  5
3FB
330
38E
100
AcDbEntity
  8
IFS_FIBER_OPTICS
100
AcDbBlockReference
  2
R3_1_INCH_REAR_SCREW
 10
21.06982096535273
 20
5.573293362839434
 30
0.0
  0
LINE
  5
3FC
102
{ACAD_REACTORS
330
3A1
102
}
330
38E
100
AcDbEntity
  8
IFS_FIBER_OPTICS
100
AcDbLine
 10
16.44717773138101
 20
10.64541087664235
 30
0.0
 11
9.417177731381014
 21
10.64541087664235
 31
0.0
  0
LINE
  5
3FD
102
{ACAD_REACTORS
330
39B
102
}
330
38E
100
AcDbEntity
  8
IFS_FIBER_OPTICS
100
AcDbLine
 10
16.44717773138101
 20
10.14541087664236
 30
0.0
 11
9.417177731381014
 21
10.14541087664236
 31
0.0
  0
LINE
  5
3FE
102
{ACAD_REACTORS
330
39B
102
}
330
38E
100
AcDbEntity
  8
IFS_FIBER_OPTICS
100
AcDbLine
 10
9.417177731381016
 20
6.265410876642356
 30
0.0
 11
16.44717773138101
 21
6.265410876642356
 31
0.0
  0
LINE
  5
3FF
330
38E
100
AcDbEntity
  8
IFS_FIBER_OPTICS
100
AcDbLine
 10
9.417177731381016
 20
5.765410876642356
 30
0.0
 11
16.44717773138101
 21
5.765410876642356
 31
0.0
  0
MTEXT
  5
400
330
38E
100
AcDbEntity
  8
IFS_FIBER_OPTICS
100
AcDbMText
 10
12.68523582488477
 20
9.789341806441299
 30
0.0
 40
0.1
 41
2.346941906496241
 71
     5
 72
     5
  1
{\fArial|b0|i0|c0|p34;LTC 4642\PVIDEO RECEIVER}
1001
ACAD
1000
MTEXTBEGIN
1070
    73
1070
     1
1070
    44
1040
1.0
1070
    74
1070
     0
1000
MTEXTEND
  0
SOLID
  5
401
330
38E
100
AcDbEntity
  8
0
100
AcDbTrace
 10
21.80312131924432
 20
6.432293362839432
 30
0.0
 11
21.80312131924432
 21
6.272293362839434
 31
0.0
 12
21.9853112372167
 22
6.432293362839432
 32
0.0
 13
21.9853112372167
 23
6.272293362839434
 33
0.0
  0
LINE
  5
402
330
38E
100
AcDbEntity
  8
0
100
AcDbLine
 10
21.80312131924432
 20
6.272293362839434
 30
0.0
 11
21.9853112372167
 21
6.272293362839434
 31
0.0
  0
INSERT
  5
403
330
38E
100
AcDbEntity
  8
0
100
AcDbBlockReference
  2
CONNR3MOLEX
 10
21.49982096535273
 20
6.565293362839433
 30
0.0
  0
LINE
  5
404
330
38E
100
AcDbEntity
  8
0
100
AcDbLine
 10
21.80312131924432
 20
6.432293362839432
 30
0.0
 11
21.9853112372167
 21
6.432293362839432
 31
0.0
  0
LINE
  5
405
330
38E
100
AcDbEntity
  8
0
100
AcDbLine
 10
21.80312131924433
 20
9.920293362839432
 30
0.0
 11
21.9853112372167
 21
9.920293362839432
 31
0.0
  0
LINE
  5
406
330
38E
100
AcDbEntity
  8
0
100
AcDbLine
 10
21.80312131924433
 20
9.760293362839433
 30
0.0
 11
21.9853112372167
 21
9.760293362839433
 31
0.0
  0
SOLID
  5
407
330
38E
100
AcDbEntity
  8
0
100
AcDbTrace
 10
21.80312131924433
 20
9.920293362839432
 30
0.0
 11
21.80312131924433
 21
9.760293362839433
 31
0.0
 12
21.9853112372167
 22
9.920293362839432
 32
0.0
 13
21.9853112372167
 23
9.760293362839433
 33
0.0
  0
LINE
  5
408
330
38E
100
AcDbEntity
  8
0
100
AcDbLine
 10
22.04982096535273
 20
10.62829336283943
 30
0.0
 11
21.06982096535273
 21
10.62829336283943
 31
0.0
  0
INSERT
  5
409
330
38E
100
AcDbEntity
  8
0
100
AcDbBlockReference
  2
LTC_4641
 10
0.0
 20
3.090994556703005
 30
0.0
  0
ENDBLK
  5
390
330
38E
100
AcDbEntity
  8
0
100
AcDbBlockEnd
  0
BLOCK
  5
5A9
330
59E
100
AcDbEntity
  8
0
100
AcDbBlockBegin
  2
*D23
 70
     1
 10
0.0
 20
0.0
 30
0.0
  3
*D23
  1

  0
LINE
  5
59F
330
59E
100
AcDbEntity
  8
0
 62
     0
100
AcDbLine
 10
19.22332439543604
 20
10.67601755823128
 30
0.0
 11
18.43491019917035
 21
10.67601755823128
 31
0.0
  0
LINE
  5
5A0
330
59E
100
AcDbEntity
  8
0
 62
     0
100
AcDbLine
 10
19.22332439543604
 20
5.621017558231287
 30
0.0
 11
18.43491019917035
 21
5.621017558231287
 31
0.0
  0
LINE
  5
5A1
330
59E
100
AcDbEntity
  8
0
 62
     0
100
AcDbLine
 10
18.61491019917035
 20
10.49601755823128
 30
0.0
 11
18.61491019917035
 21
8.288517558231287
 31
0.0
  0
LINE
  5
5A2
330
59E
100
AcDbEntity
  8
0
 62
     0
100
AcDbLine
 10
18.61491019917035
 20
5.801017558231286
 30
0.0
 11
18.61491019917035
 21
8.008517558231286
 31
0.0
  0
SOLID
  5
5A3
330
59E
100
AcDbEntity
  8
0
 62
     0
100
AcDbTrace
 10
18.58491019917035
 20
10.49601755823128
 30
0.0
 11
18.64491019917035
 21
10.49601755823128
 31
0.0
 12
18.61491019917035
 22
10.67601755823128
 32
0.0
 13
18.61491019917035
 23
10.67601755823128
 33
0.0
  0
SOLID
  5
5A4
330
59E
100
AcDbEntity
  8
0
 62
     0
100
AcDbTrace
 10
18.58491019917035
 20
5.801017558231286
 30
0.0
 11
18.64491019917035
 21
5.801017558231286
 31
0.0
 12
18.61491019917035
 22
5.621017558231287
 32
0.0
 13
18.61491019917035
 23
5.621017558231287
 33
0.0
  0
MTEXT
  5
5A5
330
59E
100
AcDbEntity
  8
0
 62
     0
100
AcDbMText
 10
18.61491019917035
 20
8.148517558231288
 30
0.0
 40
0.1
 41
0.0
 71
     5
 72
     1
  1
\A1;5.1 [128.40]
1001
ACAD
1000
MTEXTBEGIN
1070
    73
1070
     1
1070
    44
1040
1.0
1070
    74
1070
     0
1000
MTEXTEND
  0
POINT
  5
5A6
330
59E
100
AcDbEntity
  8
DEFPOINTS
 62
     0
100
AcDbPoint
 10
19.28582439543604
 20
10.67601755823128
 30
0.0
  0
POINT
  5
5A7
330
59E
100
AcDbEntity
  8
DEFPOINTS
 62
     0
100
AcDbPoint
 10
19.28582439543604
 20
5.621017558231287
 30
0.0
  0
POINT
  5
5A8
330
59E
100
AcDbEntity
  8
DEFPOINTS
 62
     0
100
AcDbPoint
 10
18.61491019917035
 20
5.621017558231287
 30
0.0
  0
ENDBLK
  5
5AA
330
59E
100
AcDbEntity
  8
0
100
AcDbBlockEnd
  0
BLOCK
  5
5B6
330
5AB
100
AcDbEntity
  8
0
100
AcDbBlockBegin
  2
*D24
 70
     1
 10
0.0
 20
0.0
 30
0.0
  3
*D24
  1

  0
LINE
  5
5AC
330
5AB
100
AcDbEntity
  8
0
 62
     0
100
AcDbLine
 10
9.354677731381014
 20
10.14541087664236
 30
0.0
 11
8.685738866746646
 21
10.14541087664236
 31
0.0
  0
LINE
  5
5AD
330
5AB
100
AcDbEntity
  8
0
 62
     0
100
AcDbLine
 10
9.354677731381016
 20
6.265410876642356
 30
0.0
 11
8.685738866746646
 21
6.265410876642356
 31
0.0
  0
LINE
  5
5AE
330
5AB
100
AcDbEntity
  8
0
 62
     0
100
AcDbLine
 10
8.865738866746646
 20
9.965410876642359
 30
0.0
 11
8.865738866746646
 21
8.345410876642358
 31
0.0
  0
LINE
  5
5AF
330
5AB
100
AcDbEntity
  8
0
 62
     0
100
AcDbLine
 10
8.865738866746646
 20
6.445410876642355
 30
0.0
 11
8.865738866746646
 21
8.065410876642356
 31
0.0
  0
SOLID
  5
5B0
330
5AB
100
AcDbEntity
  8
0
 62
     0
100
AcDbTrace
 10
8.835738866746646
 20
9.965410876642359
 30
0.0
 11
8.895738866746645
 21
9.965410876642359
 31
0.0
 12
8.865738866746646
 22
10.14541087664236
 32
0.0
 13
8.865738866746646
 23
10.14541087664236
 33
0.0
  0
SOLID
  5
5B1
330
5AB
100
AcDbEntity
  8
0
 62
     0
100
AcDbTrace
 10
8.835738866746646
 20
6.445410876642355
 30
0.0
 11
8.895738866746645
 21
6.445410876642355
 31
0.0
 12
8.865738866746646
 22
6.265410876642356
 32
0.0
 13
8.865738866746646
 23
6.265410876642356
 33
0.0
  0
MTEXT
  5
5B2
330
5AB
100
AcDbEntity
  8
0
 62
     0
100
AcDbMText
 10
8.865738866746644
 20
8.205410876642359
 30
0.0
 40
0.1
 41
0.0
 71
     5
 72
     1
  1
\A1;3.9 [98.55]
1001
ACAD
1000
MTEXTBEGIN
1070
    73
1070
     1
1070
    44
1040
1.0
1070
    74
1070
     0
1000
MTEXTEND
  0
POINT
  5
5B3
330
5AB
100
AcDbEntity
  8
DEFPOINTS
 62
     0
100
AcDbPoint
 10
9.417177731381014
 20
10.14541087664236
 30
0.0
  0
POINT
  5
5B4
330
5AB
100
AcDbEntity
  8
DEFPOINTS
 62
     0
100
AcDbPoint
 10
9.417177731381016
 20
6.265410876642356
 30
0.0
  0
POINT
  5
5B5
330
5AB
100
AcDbEntity
  8
DEFPOINTS
 62
     0
100
AcDbPoint
 10
8.865738866746646
 20
6.265410876642356
 30
0.0
  0
ENDBLK
  5
5B7
330
5AB
100
AcDbEntity
  8
0
100
AcDbBlockEnd
  0
BLOCK
  5
5C3
330
5B8
100
AcDbEntity
  8
0
100
AcDbBlockBegin
  2
*D25
 70
     1
 10
0.0
 20
0.0
 30
0.0
  3
*D25
  1

  0
LINE
  5
5B9
330
5B8
100
AcDbEntity
  8
0
 62
     0
100
AcDbLine
 10
10.17643363527683
 20
5.914116024477518
 30
0.0
 11
10.17643363527683
 21
4.842181891624054
 31
0.0
  0
LINE
  5
5BA
330
5B8
100
AcDbEntity
  8
0
 62
     0
100
AcDbLine
 10
15.67643363527683
 20
5.914116024477518
 30
0.0
 11
15.67643363527683
 21
4.842181891624054
 31
0.0
  0
LINE
  5
5BB
330
5B8
100
AcDbEntity
  8
0
 62
     0
100
AcDbLine
 10
10.35643363527683
 20
5.022181891624054
 30
0.0
 11
12.3781003019435
 21
5.022181891624054
 31
0.0
  0
LINE
  5
5BC
330
5B8
100
AcDbEntity
  8
0
 62
     0
100
AcDbLine
 10
15.49643363527683
 20
5.022181891624054
 30
0.0
 11
13.47476696861017
 21
5.022181891624054
 31
0.0
  0
SOLID
  5
5BD
330
5B8
100
AcDbEntity
  8
0
 62
     0
100
AcDbTrace
 10
10.35643363527683
 20
5.052181891624054
 30
0.0
 11
10.35643363527683
 21
4.992181891624054
 31
0.0
 12
10.17643363527683
 22
5.022181891624054
 32
0.0
 13
10.17643363527683
 23
5.022181891624054
 33
0.0
  0
SOLID
  5
5BE
330
5B8
100
AcDbEntity
  8
0
 62
     0
100
AcDbTrace
 10
15.49643363527683
 20
5.052181891624054
 30
0.0
 11
15.49643363527683
 21
4.992181891624054
 31
0.0
 12
15.67643363527683
 22
5.022181891624054
 32
0.0
 13
15.67643363527683
 23
5.022181891624054
 33
0.0
  0
MTEXT
  5
5BF
330
5B8
100
AcDbEntity
  8
0
 62
     0
100
AcDbMText
 10
12.92643363527683
 20
5.022181891624054
 30
0.0
 40
0.1
 41
0.0
 71
     5
 72
     1
  1
\A1;5.5 [139.70]
1001
ACAD
1000
MTEXTBEGIN
1070
    73
1070
     1
1070
    44
1040
1.0
1070
    74
1070
     0
1000
MTEXTEND
  0
POINT
  5
5C0
330
5B8
100
AcDbEntity
  8
DEFPOINTS
 62
     0
100
AcDbPoint
 10
10.17643363527683
 20
5.976616024477518
 30
0.0
  0
POINT
  5
5C1
330
5B8
100
AcDbEntity
  8
DEFPOINTS
 62
     0
100
AcDbPoint
 10
15.67643363527683
 20
5.976616024477518
 30
0.0
  0
POINT
  5
5C2
330
5B8
100
AcDbEntity
  8
DEFPOINTS
 62
     0
100
AcDbPoint
 10
15.67643363527683
 20
5.022181891624054
 30
0.0
  0
ENDBLK
  5
5C4
330
5B8
100
AcDbEntity
  8
0
100
AcDbBlockEnd
  0
BLOCK
  5
5D0
330
5C5
100
AcDbEntity
  8
0
100
AcDbBlockBegin
  2
*D26
 70
     1
 10
0.0
 20
0.0
 30
0.0
  3
*D26
  1

  0
LINE
  5
5C6
330
5C5
100
AcDbEntity
  8
0
 62
     0
100
AcDbLine
 10
9.417177731381014
 20
10.70791087664235
 30
0.0
 11
9.417177731381014
 21
11.70828152410528
 31
0.0
  0
LINE
  5
5C7
330
5C5
100
AcDbEntity
  8
0
 62
     0
100
AcDbLine
 10
16.44717773138101
 20
10.70791087664235
 30
0.0
 11
16.44717773138101
 21
11.70828152410528
 31
0.0
  0
LINE
  5
5C8
330
5C5
100
AcDbEntity
  8
0
 62
     0
100
AcDbLine
 10
9.597177731381014
 20
11.52828152410528
 30
0.0
 11
12.38384439804768
 21
11.52828152410528
 31
0.0
  0
LINE
  5
5C9
330
5C5
100
AcDbEntity
  8
0
 62
     0
100
AcDbLine
 10
16.26717773138101
 20
11.52828152410528
 30
0.0
 11
13.48051106471435
 21
11.52828152410528
 31
0.0
  0
SOLID
  5
5CA
330
5C5
100
AcDbEntity
  8
0
 62
     0
100
AcDbTrace
 10
9.597177731381014
 20
11.55828152410528
 30
0.0
 11
9.597177731381014
 21
11.49828152410528
 31
0.0
 12
9.417177731381014
 22
11.52828152410528
 32
0.0
 13
9.417177731381014
 23
11.52828152410528
 33
0.0
  0
SOLID
  5
5CB
330
5C5
100
AcDbEntity
  8
0
 62
     0
100
AcDbTrace
 10
16.26717773138101
 20
11.55828152410528
 30
0.0
 11
16.26717773138101
 21
11.49828152410528
 31
0.0
 12
16.44717773138101
 22
11.52828152410528
 32
0.0
 13
16.44717773138101
 23
11.52828152410528
 33
0.0
  0
MTEXT
  5
5CC
330
5C5
100
AcDbEntity
  8
0
 62
     0
100
AcDbMText
 10
12.93217773138101
 20
11.52828152410528
 30
0.0
 40
0.1
 41
0.0
 71
     5
 72
     1
  1
\A1;7.0 [178.56]
1001
ACAD
1000
MTEXTBEGIN
1070
    73
1070
     1
1070
    44
1040
1.0
1070
    74
1070
     0
1000
MTEXTEND
  0
POINT
  5
5CD
330
5C5
100
AcDbEntity
  8
DEFPOINTS
 62
     0
100
AcDbPoint
 10
9.417177731381014
 20
10.64541087664235
 30
0.0
  0
POINT
  5
5CE
330
5C5
100
AcDbEntity
  8
DEFPOINTS
 62
     0
100
AcDbPoint
 10
16.44717773138101
 20
10.64541087664235
 30
0.0
  0
POINT
  5
5CF
330
5C5
100
AcDbEntity
  8
DEFPOINTS
 62
     0
100
AcDbPoint
 10
16.44717773138101
 20
11.52828152410528
 30
0.0
  0
ENDBLK
  5
5D1
330
5C5
100
AcDbEntity
  8
0
100
AcDbBlockEnd
  0
BLOCK
  5
733
330
728
100
AcDbEntity
  8
0
100
AcDbBlockBegin
  2
*D33
 70
     1
 10
0.0
 20
0.0
 30
0.0
  3
*D33
  1

  0
LINE
  5
736
330
728
100
AcDbEntity
  8
0
 62
     0
100
AcDbLine
 10
5.907247209055945
 20
9.288204977522697
 30
0.0
 11
5.236406968328893
 21
9.288204977522697
 31
0.0
  0
LINE
  5
737
330
728
100
AcDbEntity
  8
0
 62
     0
100
AcDbLine
 10
5.907247209055945
 20
7.068204977522697
 30
0.0
 11
5.236406968328893
 21
7.068204977522697
 31
0.0
  0
LINE
  5
738
330
728
100
AcDbEntity
  8
0
 62
     0
100
AcDbLine
 10
5.416406968328892
 20
9.108204977522698
 30
0.0
 11
5.416406968328892
 21
8.318204977522697
 31
0.0
  0
LINE
  5
739
330
728
100
AcDbEntity
  8
0
 62
     0
100
AcDbLine
 10
5.416406968328892
 20
7.248204977522696
 30
0.0
 11
5.416406968328892
 21
8.038204977522696
 31
0.0
  0
SOLID
  5
73A
330
728
100
AcDbEntity
  8
0
 62
     0
100
AcDbTrace
 10
5.386406968328892
 20
9.108204977522698
 30
0.0
 11
5.446406968328893
 21
9.108204977522698
 31
0.0
 12
5.416406968328892
 22
9.288204977522697
 32
0.0
 13
5.416406968328892
 23
9.288204977522697
 33
0.0
  0
SOLID
  5
73B
330
728
100
AcDbEntity
  8
0
 62
     0
100
AcDbTrace
 10
5.386406968328892
 20
7.248204977522696
 30
0.0
 11
5.446406968328893
 21
7.248204977522696
 31
0.0
 12
5.416406968328892
 22
7.068204977522697
 32
0.0
 13
5.416406968328892
 23
7.068204977522697
 33
0.0
  0
MTEXT
  5
73C
330
728
100
AcDbEntity
  8
0
 62
     0
100
AcDbMText
 10
5.416406968328892
 20
8.178204977522698
 30
0.0
 40
0.1
 41
0.0
 71
     5
 72
     1
  1
\A1;2.2 [56.39]
1001
ACAD
1000
MTEXTBEGIN
1070
    73
1070
     1
1070
    44
1040
1.0
1070
    74
1070
     0
1000
MTEXTEND
  0
POINT
  5
73D
330
728
100
AcDbEntity
  8
DEFPOINTS
 62
     0
100
AcDbPoint
 10
5.969747209055945
 20
9.288204977522697
 30
0.0
  0
POINT
  5
73E
330
728
100
AcDbEntity
  8
DEFPOINTS
 62
     0
100
AcDbPoint
 10
5.969747209055945
 20
7.068204977522697
 30
0.0
  0
POINT
  5
73F
330
728
100
AcDbEntity
  8
DEFPOINTS
 62
     0
100
AcDbPoint
 10
5.416406968328892
 20
7.068204977522697
 30
0.0
  0
ENDBLK
  5
734
330
728
100
AcDbEntity
  8
0
100
AcDbBlockEnd
  0
BLOCK
  5
74D
330
742
100
AcDbEntity
  8
0
100
AcDbBlockBegin
  2
*D34
 70
     1
 10
0.0
 20
0.0
 30
0.0
  3
*D34
  1

  0
LINE
  5
750
330
742
100
AcDbEntity
  8
0
 62
     0
100
AcDbLine
 10
5.969747209055945
 20
7.005704977522697
 30
0.0
 11
5.969747209055945
 21
6.561059838224259
 31
0.0
  0
LINE
  5
751
330
742
100
AcDbEntity
  8
0
 62
     0
100
AcDbLine
 10
7.619747209055945
 20
7.005704977522697
 30
0.0
 11
7.619747209055945
 21
6.561059838224259
 31
0.0
  0
LINE
  5
752
330
742
100
AcDbEntity
  8
0
 62
     0
100
AcDbLine
 10
6.149747209055945
 20
6.741059838224259
 30
0.0
 11
6.321413875722611
 21
6.741059838224259
 31
0.0
  0
LINE
  5
753
330
742
100
AcDbEntity
  8
0
 62
     0
100
AcDbLine
 10
7.439747209055945
 20
6.741059838224259
 30
0.0
 11
7.268080542389278
 21
6.741059838224259
 31
0.0
  0
SOLID
  5
754
330
742
100
AcDbEntity
  8
0
 62
     0
100
AcDbTrace
 10
6.149747209055945
 20
6.771059838224259
 30
0.0
 11
6.149747209055945
 21
6.711059838224259
 31
0.0
 12
5.969747209055945
 22
6.741059838224259
 32
0.0
 13
5.969747209055945
 23
6.741059838224259
 33
0.0
  0
SOLID
  5
755
330
742
100
AcDbEntity
  8
0
 62
     0
100
AcDbTrace
 10
7.439747209055945
 20
6.771059838224259
 30
0.0
 11
7.439747209055945
 21
6.711059838224259
 31
0.0
 12
7.619747209055945
 22
6.741059838224259
 32
0.0
 13
7.619747209055945
 23
6.741059838224259
 33
0.0
  0
MTEXT
  5
756
330
742
100
AcDbEntity
  8
0
 62
     0
100
AcDbMText
 10
6.794747209055945
 20
6.741059838224259
 30
0.0
 40
0.1
 41
0.0
 71
     5
 72
     1
  1
\A1;1.7 [41.91]
1001
ACAD
1000
MTEXTBEGIN
1070
    73
1070
     1
1070
    44
1040
1.0
1070
    74
1070
     0
1000
MTEXTEND
  0
POINT
  5
757
330
742
100
AcDbEntity
  8
DEFPOINTS
 62
     0
100
AcDbPoint
 10
5.969747209055945
 20
7.068204977522697
 30
0.0
  0
POINT
  5
758
330
742
100
AcDbEntity
  8
DEFPOINTS
 62
     0
100
AcDbPoint
 10
7.619747209055945
 20
7.068204977522697
 30
0.0
  0
POINT
  5
759
330
742
100
AcDbEntity
  8
DEFPOINTS
 62
     0
100
AcDbPoint
 10
7.619747209055945
 20
6.741059838224259
 30
0.0
  0
ENDBLK
  5
74E
330
742
100
AcDbEntity
  8
0
100
AcDbBlockEnd
  0
BLOCK
  5
ADB
330
AD0
100
AcDbEntity
  8
0
100
AcDbBlockBegin
  2
*D35
 70
     1
 10
0.0
 20
0.0
 30
0.0
  3
*D35
  1

  0
LINE
  5
AD1
330
AD0
100
AcDbEntity
  8
0
 62
     0
100
AcDbLine
 10
315.053290466643
 20
26.59388103900303
 30
0.0
 11
315.053290466643
 21
18.16689450082271
 31
0.0
  0
LINE
  5
AD2
330
AD0
100
AcDbEntity
  8
0
 62
     0
100
AcDbLine
 10
356.963290466643
 20
26.59388103900303
 30
0.0
 11
356.963290466643
 21
18.16689450082271
 31
0.0
  0
LINE
  5
AD3
330
AD0
100
AcDbEntity
  8
0
 62
     0
100
AcDbLine
 10
315.233290466643
 20
18.34689450082271
 30
0.0
 11
335.393290466643
 21
18.34689450082271
 31
0.0
  0
LINE
  5
AD4
330
AD0
100
AcDbEntity
  8
0
 62
     0
100
AcDbLine
 10
356.7832904666429
 20
18.34689450082271
 30
0.0
 11
336.623290466643
 21
18.34689450082271
 31
0.0
  0
SOLID
  5
AD5
330
AD0
100
AcDbEntity
  8
0
 62
     0
100
AcDbTrace
 10
315.233290466643
 20
18.37689450082271
 30
0.0
 11
315.233290466643
 21
18.31689450082271
 31
0.0
 12
315.053290466643
 22
18.34689450082271
 32
0.0
 13
315.053290466643
 23
18.34689450082271
 33
0.0
  0
SOLID
  5
AD6
330
AD0
100
AcDbEntity
  8
0
 62
     0
100
AcDbTrace
 10
356.7832904666429
 20
18.37689450082271
 30
0.0
 11
356.7832904666429
 21
18.31689450082271
 31
0.0
 12
356.963290466643
 22
18.34689450082271
 32
0.0
 13
356.963290466643
 23
18.34689450082271
 33
0.0
  0
MTEXT
  5
AD7
330
AD0
100
AcDbEntity
  8
0
 62
     0
100
AcDbMText
 10
336.008290466643
 20
18.34689450082271
 30
0.0
 40
0.1
 41
0.0
 71
     5
 72
     1
  1
\A1;41.9 [1064.51]
1001
ACAD
1000
MTEXTBEGIN
1070
    73
1070
     1
1070
    44
1040
1.0
1070
    74
1070
     0
1000
MTEXTEND
  0
POINT
  5
AD8
330
AD0
100
AcDbEntity
  8
DEFPOINTS
 62
     0
100
AcDbPoint
 10
315.053290466643
 20
26.65638103900303
 30
0.0
  0
POINT
  5
AD9
330
AD0
100
AcDbEntity
  8
DEFPOINTS
 62
     0
100
AcDbPoint
 10
356.963290466643
 20
26.65638103900303
 30
0.0
  0
POINT
  5
ADA
330
AD0
100
AcDbEntity
  8
DEFPOINTS
 62
     0
100
AcDbPoint
 10
356.963290466643
 20
18.34689450082271
 30
0.0
  0
ENDBLK
  5
ADC
330
AD0
100
AcDbEntity
  8
0
100
AcDbBlockEnd
  0
BLOCK
  5
AE8
330
ADD
100
AcDbEntity
  8
0
100
AcDbBlockBegin
  2
*D36
 70
     1
 10
0.0
 20
0.0
 30
0.0
  3
*D36
  1

  0
LINE
  5
ADE
330
ADD
100
AcDbEntity
  8
0
 62
     0
100
AcDbLine
 10
314.990790466643
 20
83.04438103900304
 30
0.0
 11
300.8184483521759
 21
83.04438103900304
 31
0.0
  0
LINE
  5
ADF
330
ADD
100
AcDbEntity
  8
0
 62
     0
100
AcDbLine
 10
314.990790466643
 20
26.65638103900303
 30
0.0
 11
300.8184483521759
 21
26.65638103900304
 31
0.0
  0
LINE
  5
AE0
330
ADD
100
AcDbEntity
  8
0
 62
     0
100
AcDbLine
 10
300.9984483521758
 20
82.86438103900303
 30
0.0
 11
300.9984483521758
 21
54.99038103900304
 31
0.0
  0
LINE
  5
AE1
330
ADD
100
AcDbEntity
  8
0
 62
     0
100
AcDbLine
 10
300.9984483521758
 20
26.83638103900304
 30
0.0
 11
300.9984483521758
 21
54.71038103900305
 31
0.0
  0
SOLID
  5
AE2
330
ADD
100
AcDbEntity
  8
0
 62
     0
100
AcDbTrace
 10
300.9684483521759
 20
82.86438103900303
 30
0.0
 11
301.0284483521758
 21
82.86438103900303
 31
0.0
 12
300.9984483521758
 22
83.04438103900304
 32
0.0
 13
300.9984483521758
 23
83.04438103900304
 33
0.0
  0
SOLID
  5
AE3
330
ADD
100
AcDbEntity
  8
0
 62
     0
100
AcDbTrace
 10
300.9684483521759
 20
26.83638103900304
 30
0.0
 11
301.0284483521758
 21
26.83638103900304
 31
0.0
 12
300.9984483521758
 22
26.65638103900304
 32
0.0
 13
300.9984483521758
 23
26.65638103900304
 33
0.0
  0
MTEXT
  5
AE4
330
ADD
100
AcDbEntity
  8
0
 62
     0
100
AcDbMText
 10
300.9984483521758
 20
54.85038103900309
 30
0.0
 40
0.1
 41
0.0
 71
     5
 72
     1
  1
\A1;56.4 [1432.26]
1001
ACAD
1000
MTEXTBEGIN
1070
    73
1070
     1
1070
    44
1040
1.0
1070
    74
1070
     0
1000
MTEXTEND
  0
POINT
  5
AE5
330
ADD
100
AcDbEntity
  8
DEFPOINTS
 62
     0
100
AcDbPoint
 10
315.053290466643
 20
83.04438103900304
 30
0.0
  0
POINT
  5
AE6
330
ADD
100
AcDbEntity
  8
DEFPOINTS
 62
     0
100
AcDbPoint
 10
315.053290466643
 20
26.65638103900303
 30
0.0
  0
POINT
  5
AE7
330
ADD
100
AcDbEntity
  8
DEFPOINTS
 62
     0
100
AcDbPoint
 10
300.9984483521758
 20
26.65638103900304
 30
0.0
  0
ENDBLK
  5
AE9
330
ADD
100
AcDbEntity
  8
0
100
AcDbBlockEnd
  0
BLOCK
  5
AF5
330
AEA
100
AcDbEntity
  8
0
100
AcDbBlockBegin
  2
*D37
 70
     1
 10
0.0
 20
0.0
 30
0.0
  3
*D37
  1

  0
LINE
  5
AEB
330
AEA
100
AcDbEntity
  8
0
 62
     0
100
AcDbLine
 10
402.6180257336998
 20
117.5799108766424
 30
0.0
 11
402.6180257336998
 21
140.1223253222007
 31
0.0
  0
LINE
  5
AEC
330
AEA
100
AcDbEntity
  8
0
 62
     0
100
AcDbLine
 10
581.1800257336999
 20
117.5799108766424
 30
0.0
 11
581.1800257336999
 21
140.1223253222007
 31
0.0
  0
LINE
  5
AED
330
AEA
100
AcDbEntity
  8
0
 62
     0
100
AcDbLine
 10
402.7980257336998
 20
139.9423253222007
 30
0.0
 11
491.1923590670332
 21
139.9423253222007
 31
0.0
  0
LINE
  5
AEE
330
AEA
100
AcDbEntity
  8
0
 62
     0
100
AcDbLine
 10
581.0000257337
 20
139.9423253222007
 30
0.0
 11
492.6056924003665
 21
139.9423253222007
 31
0.0
  0
SOLID
  5
AEF
330
AEA
100
AcDbEntity
  8
0
 62
     0
100
AcDbTrace
 10
402.7980257336998
 20
139.9723253222007
 30
0.0
 11
402.7980257336998
 21
139.9123253222007
 31
0.0
 12
402.6180257336998
 22
139.9423253222007
 32
0.0
 13
402.6180257336998
 23
139.9423253222007
 33
0.0
  0
SOLID
  5
AF0
330
AEA
100
AcDbEntity
  8
0
 62
     0
100
AcDbTrace
 10
581.0000257337
 20
139.9723253222007
 30
0.0
 11
581.0000257337
 21
139.9123253222007
 31
0.0
 12
581.1800257336999
 22
139.9423253222007
 32
0.0
 13
581.1800257336999
 23
139.9423253222007
 33
0.0
  0
MTEXT
  5
AF1
330
AEA
100
AcDbEntity
  8
0
 62
     0
100
AcDbMText
 10
491.8990257336998
 20
139.9423253222007
 30
0.0
 40
0.1
 41
0.0
 71
     5
 72
     1
  1
\A1;178.6 [4535.47]
1001
ACAD
1000
MTEXTBEGIN
1070
    73
1070
     1
1070
    44
1040
1.0
1070
    74
1070
     0
1000
MTEXTEND
  0
POINT
  5
AF2
330
AEA
100
AcDbEntity
  8
DEFPOINTS
 62
     0
100
AcDbPoint
 10
402.6180257336998
 20
117.5174108766424
 30
0.0
  0
POINT
  5
AF3
330
AEA
100
AcDbEntity
  8
DEFPOINTS
 62
     0
100
AcDbPoint
 10
581.1800257336999
 20
117.5174108766424
 30
0.0
  0
POINT
  5
AF4
330
AEA
100
AcDbEntity
  8
DEFPOINTS
 62
     0
100
AcDbPoint
 10
581.1800257336999
 20
139.9423253222007
 30
0.0
  0
ENDBLK
  5
AF6
330
AEA
100
AcDbEntity
  8
0
100
AcDbBlockEnd
  0
BLOCK
  5
B02
330
AF7
100
AcDbEntity
  8
0
100
AcDbBlockBegin
  2
*D38
 70
     1
 10
0.0
 20
0.0
 30
0.0
  3
*D38
  1

  0
LINE
  5
AF8
330
AF7
100
AcDbEntity
  8
0
 62
     0
100
AcDbLine
 10
421.9031256926536
 20
-1.132478368344493
 30
0.0
 11
421.9031256926536
 21
-25.49260534282249
 31
0.0
  0
LINE
  5
AF9
330
AF7
100
AcDbEntity
  8
0
 62
     0
100
AcDbLine
 10
561.6031256926537
 20
-1.132478368344493
 30
0.0
 11
561.6031256926537
 21
-25.49260534282249
 31
0.0
  0
LINE
  5
AFA
330
AF7
100
AcDbEntity
  8
0
 62
     0
100
AcDbLine
 10
422.0831256926536
 20
-25.31260534282249
 30
0.0
 11
491.046459025987
 21
-25.31260534282249
 31
0.0
  0
LINE
  5
AFB
330
AF7
100
AcDbEntity
  8
0
 62
     0
100
AcDbLine
 10
561.4231256926538
 20
-25.31260534282249
 30
0.0
 11
492.4597923593204
 21
-25.31260534282249
 31
0.0
  0
SOLID
  5
AFC
330
AF7
100
AcDbEntity
  8
0
 62
     0
100
AcDbTrace
 10
422.0831256926536
 20
-25.28260534282249
 30
0.0
 11
422.0831256926536
 21
-25.34260534282249
 31
0.0
 12
421.9031256926536
 22
-25.31260534282249
 32
0.0
 13
421.9031256926536
 23
-25.31260534282249
 33
0.0
  0
SOLID
  5
AFD
330
AF7
100
AcDbEntity
  8
0
 62
     0
100
AcDbTrace
 10
561.4231256926538
 20
-25.28260534282249
 30
0.0
 11
561.4231256926538
 21
-25.34260534282249
 31
0.0
 12
561.6031256926537
 22
-25.31260534282249
 32
0.0
 13
561.6031256926537
 23
-25.31260534282249
 33
0.0
  0
MTEXT
  5
AFE
330
AF7
100
AcDbEntity
  8
0
 62
     0
100
AcDbMText
 10
491.7531256926537
 20
-25.31260534282249
 30
0.0
 40
0.1
 41
0.0
 71
     5
 72
     1
  1
\A1;139.7 [3548.38]
1001
ACAD
1000
MTEXTBEGIN
1070
    73
1070
     1
1070
    44
1040
1.0
1070
    74
1070
     0
1000
MTEXTEND
  0
POINT
  5
AFF
330
AF7
100
AcDbEntity
  8
DEFPOINTS
 62
     0
100
AcDbPoint
 10
421.9031256926536
 20
-1.069978368344493
 30
0.0
  0
POINT
  5
B00
330
AF7
100
AcDbEntity
  8
DEFPOINTS
 62
     0
100
AcDbPoint
 10
561.6031256926537
 20
-1.069978368344493
 30
0.0
  0
POINT
  5
B01
330
AF7
100
AcDbEntity
  8
DEFPOINTS
 62
     0
100
AcDbPoint
 10
561.6031256926537
 20
-25.31260534282249
 30
0.0
  0
ENDBLK
  5
B03
330
AF7
100
AcDbEntity
  8
0
100
AcDbBlockEnd
  0
BLOCK
  5
B0F
330
B04
100
AcDbEntity
  8
0
100
AcDbBlockBegin
  2
*D39
 70
     1
 10
0.0
 20
0.0
 30
0.0
  3
*D39
  1

  0
LINE
  5
B05
330
B04
100
AcDbEntity
  8
0
 62
     0
100
AcDbLine
 10
402.5555257336998
 20
104.8174108766424
 30
0.0
 11
388.4314785719868
 21
104.8174108766424
 31
0.0
  0
LINE
  5
B06
330
B04
100
AcDbEntity
  8
0
 62
     0
100
AcDbLine
 10
402.5555257336998
 20
6.265410876642363
 30
0.0
 11
388.4314785719868
 21
6.265410876642367
 31
0.0
  0
LINE
  5
B07
330
B04
100
AcDbEntity
  8
0
 62
     0
100
AcDbLine
 10
388.6114785719868
 20
104.6374108766424
 30
0.0
 11
388.6114785719868
 21
55.68141087664239
 31
0.0
  0
LINE
  5
B08
330
B04
100
AcDbEntity
  8
0
 62
     0
100
AcDbLine
 10
388.6114785719868
 20
6.445410876642367
 30
0.0
 11
388.6114785719868
 21
55.40141087664238
 31
0.0
  0
SOLID
  5
B09
330
B04
100
AcDbEntity
  8
0
 62
     0
100
AcDbTrace
 10
388.5814785719868
 20
104.6374108766424
 30
0.0
 11
388.6414785719868
 21
104.6374108766424
 31
0.0
 12
388.6114785719868
 22
104.8174108766424
 32
0.0
 13
388.6114785719868
 23
104.8174108766424
 33
0.0
  0
SOLID
  5
B0A
330
B04
100
AcDbEntity
  8
0
 62
     0
100
AcDbTrace
 10
388.5814785719868
 20
6.445410876642367
 30
0.0
 11
388.6414785719868
 21
6.445410876642367
 31
0.0
 12
388.6114785719868
 22
6.265410876642367
 32
0.0
 13
388.6114785719868
 23
6.265410876642367
 33
0.0
  0
MTEXT
  5
B0B
330
B04
100
AcDbEntity
  8
0
 62
     0
100
AcDbMText
 10
388.6114785719868
 20
55.54141087664245
 30
0.0
 40
0.1
 41
0.0
 71
     5
 72
     1
  1
\A1;98.6 [2503.22]
1001
ACAD
1000
MTEXTBEGIN
1070
    73
1070
     1
1070
    44
1040
1.0
1070
    74
1070
     0
1000
MTEXTEND
  0
POINT
  5
B0C
330
B04
100
AcDbEntity
  8
DEFPOINTS
 62
     0
100
AcDbPoint
 10
402.6180257336998
 20
104.8174108766424
 30
0.0
  0
POINT
  5
B0D
330
B04
100
AcDbEntity
  8
DEFPOINTS
 62
     0
100
AcDbPoint
 10
402.6180257336998
 20
6.265410876642363
 30
0.0
  0
POINT
  5
B0E
330
B04
100
AcDbEntity
  8
DEFPOINTS
 62
     0
100
AcDbPoint
 10
388.6114785719868
 20
6.265410876642367
 30
0.0
  0
ENDBLK
  5
B10
330
B04
100
AcDbEntity
  8
0
100
AcDbBlockEnd
  0
BLOCK
  5
B1C
330
B11
100
AcDbEntity
  8
0
100
AcDbBlockBegin
  2
*D40
 70
     1
 10
0.0
 20
0.0
 30
0.0
  3
*D40
  1

  0
LINE
  5
D26
330
B11
100
AcDbEntity
  8
0
 62
     0
100
AcDbLine
 10
652.3441510006975
 20
118.2948205890012
 30
0.0
 11
633.5404304155489
 21
118.2948205890012
 31
0.0
  0
LINE
  5
D27
330
B11
100
AcDbEntity
  8
0
 62
     0
100
AcDbLine
 10
652.3441510006975
 20
-10.10217941099878
 30
0.0
 11
633.5404304155489
 21
-10.10217941099877
 31
0.0
  0
LINE
  5
D28
330
B11
100
AcDbEntity
  8
0
 62
     0
100
AcDbLine
 10
636.2404304155489
 20
115.5948205890012
 30
0.0
 11
636.2404304155489
 21
56.19632058900121
 31
0.0
  0
LINE
  5
D29
330
B11
100
AcDbEntity
  8
0
 62
     0
100
AcDbLine
 10
636.2404304155489
 20
-7.402179410998781
 30
0.0
 11
636.2404304155489
 21
51.99632058900121
 31
0.0
  0
SOLID
  5
D2A
330
B11
100
AcDbEntity
  8
0
 62
     0
100
AcDbTrace
 10
635.7904304155489
 20
115.5948205890012
 30
0.0
 11
636.690430415549
 21
115.5948205890012
 31
0.0
 12
636.2404304155489
 22
118.2948205890012
 32
0.0
 13
636.2404304155489
 23
118.2948205890012
 33
0.0
  0
SOLID
  5
D2B
330
B11
100
AcDbEntity
  8
0
 62
     0
100
AcDbTrace
 10
635.7904304155489
 20
-7.402179410998781
 30
0.0
 11
636.690430415549
 21
-7.402179410998781
 31
0.0
 12
636.2404304155489
 22
-10.10217941099878
 32
0.0
 13
636.2404304155489
 23
-10.10217941099878
 33
0.0
  0
MTEXT
  5
D2C
330
B11
100
AcDbEntity
  8
0
 62
     0
100
AcDbMText
 10
636.2404304155489
 20
54.09632058900132
 30
0.0
 40
1.5
 41
0.0
 71
     5
 72
     1
  1
\A1;128.4 [5.06]
1001
ACAD
1000
MTEXTBEGIN
1070
    73
1070
     1
1070
    44
1040
1.0
1070
    74
1070
     0
1000
MTEXTEND
  0
POINT
  5
D2D
330
B11
100
AcDbEntity
  8
DEFPOINTS
 62
     0
100
AcDbPoint
 10
653.2816510006974
 20
118.2948205890012
 30
0.0
  0
POINT
  5
D2E
330
B11
100
AcDbEntity
  8
DEFPOINTS
 62
     0
100
AcDbPoint
 10
653.2816510006974
 20
-10.10217941099878
 30
0.0
  0
POINT
  5
D2F
330
B11
100
AcDbEntity
  8
DEFPOINTS
 62
     0
100
AcDbPoint
 10
636.2404304155489
 20
-10.10217941099878
 30
0.0
  0
ENDBLK
  5
B1D
330
B11
100
AcDbEntity
  8
0
100
AcDbBlockEnd
  0
BLOCK
  5
BE9
330
BDE
100
AcDbEntity
  8
0
100
AcDbBlockBegin
  2
*D42
 70
     1
 10
0.0
 20
0.0
 30
0.0
  3
*D42
  1

  0
LINE
  5
BEC
330
BDE
100
AcDbEntity
  8
0
 62
     0
100
AcDbLine
 10
314.990790466643
 20
83.04438103900304
 30
0.0
 11
298.163234790777
 21
83.04438103900304
 31
0.0
  0
LINE
  5
BED
330
BDE
100
AcDbEntity
  8
0
 62
     0
100
AcDbLine
 10
314.990790466643
 20
26.65638103900303
 30
0.0
 11
298.163234790777
 21
26.65638103900304
 31
0.0
  0
LINE
  5
BEE
330
BDE
100
AcDbEntity
  8
0
 62
     0
100
AcDbLine
 10
298.343234790777
 20
82.86438103900303
 30
0.0
 11
298.343234790777
 21
54.99038103900304
 31
0.0
  0
LINE
  5
BEF
330
BDE
100
AcDbEntity
  8
0
 62
     0
100
AcDbLine
 10
298.343234790777
 20
26.83638103900304
 30
0.0
 11
298.343234790777
 21
54.71038103900305
 31
0.0
  0
SOLID
  5
BF0
330
BDE
100
AcDbEntity
  8
0
 62
     0
100
AcDbTrace
 10
298.3132347907771
 20
82.86438103900303
 30
0.0
 11
298.373234790777
 21
82.86438103900303
 31
0.0
 12
298.343234790777
 22
83.04438103900304
 32
0.0
 13
298.343234790777
 23
83.04438103900304
 33
0.0
  0
SOLID
  5
BF1
330
BDE
100
AcDbEntity
  8
0
 62
     0
100
AcDbTrace
 10
298.3132347907771
 20
26.83638103900304
 30
0.0
 11
298.373234790777
 21
26.83638103900304
 31
0.0
 12
298.343234790777
 22
26.65638103900304
 32
0.0
 13
298.343234790777
 23
26.65638103900304
 33
0.0
  0
MTEXT
  5
BF2
330
BDE
100
AcDbEntity
  8
0
 62
     0
100
AcDbMText
 10
298.343234790777
 20
54.85038103900309
 30
0.0
 40
0.1
 41
0.0
 71
     5
 72
     1
  1
\A1;56.4 [1432.26]
1001
ACAD
1000
MTEXTBEGIN
1070
    73
1070
     1
1070
    44
1040
1.0
1070
    74
1070
     0
1000
MTEXTEND
  0
POINT
  5
BF3
330
BDE
100
AcDbEntity
  8
DEFPOINTS
 62
     0
100
AcDbPoint
 10
315.053290466643
 20
83.04438103900304
 30
0.0
  0
POINT
  5
BF4
330
BDE
100
AcDbEntity
  8
DEFPOINTS
 62
     0
100
AcDbPoint
 10
315.053290466643
 20
26.65638103900303
 30
0.0
  0
POINT
  5
BF5
330
BDE
100
AcDbEntity
  8
DEFPOINTS
 62
     0
100
AcDbPoint
 10
298.343234790777
 20
26.65638103900304
 30
0.0
  0
ENDBLK
  5
BEA
330
BDE
100
AcDbEntity
  8
0
100
AcDbBlockEnd
  0
BLOCK
  5
C0D
330
C02
100
AcDbEntity
  8
0
100
AcDbBlockBegin
  2
*D43
 70
     1
 10
0.0
 20
0.0
 30
0.0
  3
*D43
  1

  0
LINE
  5
C10
330
C02
100
AcDbEntity
  8
0
 62
     0
100
AcDbLine
 10
314.740790466643
 20
83.04438103900304
 30
0.0
 11
295.1763310130818
 21
83.04438103900304
 31
0.0
  0
LINE
  5
C11
330
C02
100
AcDbEntity
  8
0
 62
     0
100
AcDbLine
 10
314.740790466643
 20
26.65638103900303
 30
0.0
 11
295.1763310130818
 21
26.65638103900304
 31
0.0
  0
LINE
  5
C12
330
C02
100
AcDbEntity
  8
0
 62
     0
100
AcDbLine
 10
296.0763310130818
 20
82.14438103900304
 30
0.0
 11
296.0763310130818
 21
55.55038103900304
 31
0.0
  0
LINE
  5
C13
330
C02
100
AcDbEntity
  8
0
 62
     0
100
AcDbLine
 10
296.0763310130818
 20
27.55638103900304
 30
0.0
 11
296.0763310130818
 21
54.15038103900304
 31
0.0
  0
SOLID
  5
C14
330
C02
100
AcDbEntity
  8
0
 62
     0
100
AcDbTrace
 10
295.9263310130818
 20
82.14438103900304
 30
0.0
 11
296.2263310130818
 21
82.14438103900304
 31
0.0
 12
296.0763310130818
 22
83.04438103900304
 32
0.0
 13
296.0763310130818
 23
83.04438103900304
 33
0.0
  0
SOLID
  5
C15
330
C02
100
AcDbEntity
  8
0
 62
     0
100
AcDbTrace
 10
295.9263310130818
 20
27.55638103900304
 30
0.0
 11
296.2263310130818
 21
27.55638103900304
 31
0.0
 12
296.0763310130818
 22
26.65638103900304
 32
0.0
 13
296.0763310130818
 23
26.65638103900304
 33
0.0
  0
MTEXT
  5
C16
330
C02
100
AcDbEntity
  8
0
 62
     0
100
AcDbMText
 10
296.0763310130818
 20
54.85038103900309
 30
0.0
 40
0.5
 41
0.0
 71
     5
 72
     1
  1
\A1;56.4 [2.22]
1001
ACAD
1000
MTEXTBEGIN
1070
    73
1070
     1
1070
    44
1040
1.0
1070
    74
1070
     0
1000
MTEXTEND
  0
POINT
  5
C17
330
C02
100
AcDbEntity
  8
DEFPOINTS
 62
     0
100
AcDbPoint
 10
315.053290466643
 20
83.04438103900304
 30
0.0
  0
POINT
  5
C18
330
C02
100
AcDbEntity
  8
DEFPOINTS
 62
     0
100
AcDbPoint
 10
315.053290466643
 20
26.65638103900303
 30
0.0
  0
POINT
  5
C19
330
C02
100
AcDbEntity
  8
DEFPOINTS
 62
     0
100
AcDbPoint
 10
296.0763310130818
 20
26.65638103900304
 30
0.0
  0
ENDBLK
  5
C0E
330
C02
100
AcDbEntity
  8
0
100
AcDbBlockEnd
  0
BLOCK
  5
C31
330
C26
100
AcDbEntity
  8
0
100
AcDbBlockBegin
  2
*D44
 70
     1
 10
0.0
 20
0.0
 30
0.0
  3
*D44
  1

  0
LINE
  5
C34
330
C26
100
AcDbEntity
  8
0
 62
     0
100
AcDbLine
 10
314.115790466643
 20
83.04438103900304
 30
0.0
 11
294.3838439194145
 21
83.04438103900304
 31
0.0
  0
LINE
  5
C35
330
C26
100
AcDbEntity
  8
0
 62
     0
100
AcDbLine
 10
314.115790466643
 20
26.65638103900303
 30
0.0
 11
294.3838439194145
 21
26.65638103900304
 31
0.0
  0
LINE
  5
C36
330
C26
100
AcDbEntity
  8
0
 62
     0
100
AcDbLine
 10
297.0838439194145
 20
80.34438103900304
 30
0.0
 11
297.0838439194145
 21
56.95038103900305
 31
0.0
  0
LINE
  5
C37
330
C26
100
AcDbEntity
  8
0
 62
     0
100
AcDbLine
 10
297.0838439194145
 20
29.35638103900304
 30
0.0
 11
297.0838439194145
 21
52.75038103900304
 31
0.0
  0
SOLID
  5
C38
330
C26
100
AcDbEntity
  8
0
 62
     0
100
AcDbTrace
 10
296.6338439194145
 20
80.34438103900304
 30
0.0
 11
297.5338439194145
 21
80.34438103900304
 31
0.0
 12
297.0838439194145
 22
83.04438103900304
 32
0.0
 13
297.0838439194145
 23
83.04438103900304
 33
0.0
  0
SOLID
  5
C39
330
C26
100
AcDbEntity
  8
0
 62
     0
100
AcDbTrace
 10
296.6338439194145
 20
29.35638103900304
 30
0.0
 11
297.5338439194145
 21
29.35638103900304
 31
0.0
 12
297.0838439194145
 22
26.65638103900304
 32
0.0
 13
297.0838439194145
 23
26.65638103900304
 33
0.0
  0
MTEXT
  5
C3A
330
C26
100
AcDbEntity
  8
0
 62
     0
100
AcDbMText
 10
297.0838439194145
 20
54.85038103900309
 30
0.0
 40
1.5
 41
0.0
 71
     5
 72
     1
  1
\A1;56.4 [2.22]
1001
ACAD
1000
MTEXTBEGIN
1070
    73
1070
     1
1070
    44
1040
1.0
1070
    74
1070
     0
1000
MTEXTEND
  0
POINT
  5
C3B
330
C26
100
AcDbEntity
  8
DEFPOINTS
 62
     0
100
AcDbPoint
 10
315.053290466643
 20
83.04438103900304
 30
0.0
  0
POINT
  5
C3C
330
C26
100
AcDbEntity
  8
DEFPOINTS
 62
     0
100
AcDbPoint
 10
315.053290466643
 20
26.65638103900303
 30
0.0
  0
POINT
  5
C3D
330
C26
100
AcDbEntity
  8
DEFPOINTS
 62
     0
100
AcDbPoint
 10
297.0838439194145
 20
26.65638103900304
 30
0.0
  0
ENDBLK
  5
C32
330
C26
100
AcDbEntity
  8
0
100
AcDbBlockEnd
  0
BLOCK
  5
C4B
330
C40
100
AcDbEntity
  8
0
100
AcDbBlockBegin
  2
*D45
 70
     1
 10
0.0
 20
0.0
 30
0.0
  3
*D45
  1

  0
LINE
  5
C4E
330
C40
100
AcDbEntity
  8
0
 62
     0
100
AcDbLine
 10
315.053290466643
 20
25.71888103900303
 30
0.0
 11
315.053290466643
 21
18.08203026263793
 31
0.0
  0
LINE
  5
C4F
330
C40
100
AcDbEntity
  8
0
 62
     0
100
AcDbLine
 10
356.963290466643
 20
25.71888103900303
 30
0.0
 11
356.963290466643
 21
18.08203026263793
 31
0.0
  0
LINE
  5
C50
330
C40
100
AcDbEntity
  8
0
 62
     0
100
AcDbLine
 10
317.753290466643
 20
20.78203026263793
 30
0.0
 11
328.6582904666429
 21
20.78203026263793
 31
0.0
  0
LINE
  5
C51
330
C40
100
AcDbEntity
  8
0
 62
     0
100
AcDbLine
 10
354.2632904666429
 20
20.78203026263793
 30
0.0
 11
343.358290466643
 21
20.78203026263793
 31
0.0
  0
SOLID
  5
C52
330
C40
100
AcDbEntity
  8
0
 62
     0
100
AcDbTrace
 10
317.753290466643
 20
21.23203026263793
 30
0.0
 11
317.753290466643
 21
20.33203026263793
 31
0.0
 12
315.053290466643
 22
20.78203026263793
 32
0.0
 13
315.053290466643
 23
20.78203026263793
 33
0.0
  0
SOLID
  5
C53
330
C40
100
AcDbEntity
  8
0
 62
     0
100
AcDbTrace
 10
354.2632904666429
 20
21.23203026263793
 30
0.0
 11
354.2632904666429
 21
20.33203026263793
 31
0.0
 12
356.963290466643
 22
20.78203026263793
 32
0.0
 13
356.963290466643
 23
20.78203026263793
 33
0.0
  0
MTEXT
  5
C54
330
C40
100
AcDbEntity
  8
0
 62
     0
100
AcDbMText
 10
336.008290466643
 20
20.78203026263793
 30
0.0
 40
1.5
 41
0.0
 71
     5
 72
     1
  1
\A1;41.9 [1.65]
1001
ACAD
1000
MTEXTBEGIN
1070
    73
1070
     1
1070
    44
1040
1.0
1070
    74
1070
     0
1000
MTEXTEND
  0
POINT
  5
C55
330
C40
100
AcDbEntity
  8
DEFPOINTS
 62
     0
100
AcDbPoint
 10
315.053290466643
 20
26.65638103900303
 30
0.0
  0
POINT
  5
C56
330
C40
100
AcDbEntity
  8
DEFPOINTS
 62
     0
100
AcDbPoint
 10
356.963290466643
 20
26.65638103900303
 30
0.0
  0
POINT
  5
C57
330
C40
100
AcDbEntity
  8
DEFPOINTS
 62
     0
100
AcDbPoint
 10
356.963290466643
 20
20.78203026263793
 30
0.0
  0
ENDBLK
  5
C4C
330
C40
100
AcDbEntity
  8
0
100
AcDbBlockEnd
  0
BLOCK
  5
C61
330
C60
100
AcDbEntity
  8
0
100
AcDbBlockBegin
  2
4642
 70
     0
 10
0.0
 20
0.0
 30
0.0
  3
4642
  1

  0
LINE
  5
C63
330
C60
100
AcDbEntity
  8
IFS_FIBER_OPTICS
100
AcDbLine
 10
581.1800257336999
 20
-6.434589123357625
 30
0.0
 11
581.1800257336999
 21
117.5174108766424
 31
0.0
  0
LINE
  5
C64
330
C60
100
AcDbEntity
  8
IFS_FIBER_OPTICS
100
AcDbLine
 10
402.6180257336998
 20
117.5174108766424
 30
0.0
 11
402.6180257336998
 21
-6.434589123357625
 31
0.0
  0
LINE
  5
C65
330
C60
100
AcDbEntity
  8
IFS_FIBER_OPTICS
100
AcDbLine
 10
402.6180257336998
 20
6.265410876642363
 30
0.0
 11
581.1800257336999
 21
6.265410876642363
 31
0.0
  0
LINE
  5
C66
330
C60
100
AcDbEntity
  8
IFS_FIBER_OPTICS
100
AcDbLine
 10
402.6180257336998
 20
-6.434589123357625
 30
0.0
 11
581.1800257336999
 21
-6.434589123357625
 31
0.0
  0
ARC
  5
C67
330
C60
100
AcDbEntity
  8
IFS_FIBER_OPTICS
100
AcDbCircle
 10
428.2531256926536
 20
-1.069978368344493
 30
0.0
 40
1.981199999999999
100
AcDbArc
 50
270.0
 51
90.0
  0
ARC
  5
C68
330
C60
100
AcDbEntity
  8
IFS_FIBER_OPTICS
100
AcDbCircle
 10
415.5531256926535
 20
-1.069978368344493
 30
0.0
 40
1.981199999999999
100
AcDbArc
 50
90.0
 51
270.0
  0
LINE
  5
C69
330
C60
100
AcDbEntity
  8
IFS_FIBER_OPTICS
100
AcDbLine
 10
415.5531256926535
 20
-3.051178368344494
 30
0.0
 11
418.9501640335731
 21
-3.051178368344494
 31
0.0
  0
LINE
  5
C6A
330
C60
100
AcDbEntity
  8
IFS_FIBER_OPTICS
100
AcDbLine
 10
424.8560873517342
 20
-3.051178368344494
 30
0.0
 11
428.2531256926536
 21
-3.051178368344494
 31
0.0
  0
ARC
  5
C6B
330
C60
100
AcDbEntity
  8
IFS_FIBER_OPTICS
100
AcDbCircle
 10
421.9031256926536
 20
-1.069978368344493
 30
0.0
 40
3.556
100
AcDbArc
 50
213.8584366594589
 51
326.1415633405437
  0
LINE
  5
C6C
330
C60
100
AcDbEntity
  8
IFS_FIBER_OPTICS
100
AcDbLine
 10
415.5531256926535
 20
0.9112216316555361
 30
0.0
 11
418.9501640335731
 21
0.9112216316555361
 31
0.0
  0
LINE
  5
C6D
330
C60
100
AcDbEntity
  8
IFS_FIBER_OPTICS
100
AcDbLine
 10
424.8560873517342
 20
0.9112216316555361
 30
0.0
 11
428.2531256926536
 21
0.9112216316555645
 31
0.0
  0
ARC
  5
C6E
330
C60
100
AcDbEntity
  8
IFS_FIBER_OPTICS
100
AcDbCircle
 10
421.9031256926536
 20
-1.069978368344493
 30
0.0
 40
3.556
100
AcDbArc
 50
33.85843665945614
 51
146.1415633405438
  0
MTEXT
  5
C6F
330
C60
100
AcDbEntity
  8
IFS_FIBER_OPTICS
100
AcDbMText
 10
404.5843733103455
 20
31.56844765544531
 30
0.0
 40
2.54
 41
36.66489999999999
 71
     1
 72
     5
  1
{\fArial|b0|i0|c0|p34;POWER}
1001
ACAD
1000
MTEXTBEGIN
1070
    73
1070
     1
1070
    44
1040
1.0
1070
    74
1070
     0
1000
MTEXTEND
  0
MTEXT
  5
C70
330
C60
100
AcDbEntity
  8
IFS_FIBER_OPTICS
100
AcDbMText
 10
404.5843733103455
 20
44.26844765544532
 30
0.0
 40
2.54
 41
0.0
 71
     1
 72
     5
  1
{\fArial|b0|i0|c0|p34;AGC}
1001
ACAD
1000
MTEXTBEGIN
1070
    73
1070
     1
1070
    44
1040
1.0
1070
    74
1070
     0
1000
MTEXTEND
  0
INSERT
  5
C71
330
C60
100
AcDbEntity
  8
IFS_FIBER_OPTICS
100
AcDbBlockReference
  2
GROUND
 10
575.8449987947956
 20
16.22497798520689
 30
0.0
 41
25.4
 42
25.4
 43
25.4
  0
MTEXT
  5
C72
330
C60
100
AcDbEntity
  8
IFS_FIBER_OPTICS
100
AcDbMText
 10
561.0195465293005
 20
14.47840587307402
 30
0.0
 40
2.54
 41
25.59304
 71
     4
 72
     5
  1
{\fArial|b0|i0|c0|p34;                -2\P +12 VDC-1}
1001
ACAD
1000
MTEXTBEGIN
1070
    73
1070
     1
1070
    44
1040
1.0
1070
    74
1070
     0
1000
MTEXTEND
  0
LWPOLYLINE
  5
C73
330
C60
100
AcDbEntity
  8
IFS_FIBER_OPTICS
100
AcDbPolyline
 90
        4
 70
     0
 43
0.254
 10
561.2214126353591
 20
18.24127884408389
 10
558.736415991061
 20
18.24127884408389
 10
558.736415991061
 20
10.7920271509646
 10
561.2214126353591
 20
10.7920271509646
  0
INSERT
  5
C74
330
C60
100
AcDbEntity
  8
IFS_FIBER_OPTICS
100
AcDbBlockReference
  2
LARGE_2_PIN
 10
441.0143545909137
 20
-6.736501091442505
 30
0.0
 41
25.4
 42
25.4
 43
25.4
  0
MTEXT
  5
C75
330
C60
100
AcDbEntity
  8
IFS_FIBER_OPTICS
100
AcDbMText
 10
549.7540046855476
 20
14.47840587307402
 30
0.0
 40
2.54
 41
25.59304
 71
     5
 72
     5
  1
{\fArial|b0|i0|c0|p34;POWER}
1001
ACAD
1000
MTEXTBEGIN
1070
    73
1070
     1
1070
    44
1040
1.0
1070
    74
1070
     0
1000
MTEXTEND
  0
ARC
  5
C76
330
C60
100
AcDbEntity
  8
IFS_FIBER_OPTICS
100
AcDbCircle
 10
567.9531256926536
 20
-1.069978368344493
 30
0.0
 40
1.981199999999999
100
AcDbArc
 50
270.0
 51
90.0
  0
ARC
  5
C77
330
C60
100
AcDbEntity
  8
IFS_FIBER_OPTICS
100
AcDbCircle
 10
555.2531256926536
 20
-1.069978368344493
 30
0.0
 40
1.981199999999999
100
AcDbArc
 50
90.0
 51
270.0
  0
LINE
  5
C78
330
C60
100
AcDbEntity
  8
IFS_FIBER_OPTICS
100
AcDbLine
 10
555.2531256926536
 20
-3.051178368344494
 30
0.0
 11
558.650164033573
 21
-3.051178368344494
 31
0.0
  0
LINE
  5
C79
330
C60
100
AcDbEntity
  8
IFS_FIBER_OPTICS
100
AcDbLine
 10
564.5560873517341
 20
-3.051178368344494
 30
0.0
 11
567.9531256926536
 21
-3.051178368344494
 31
0.0
  0
ARC
  5
C7A
330
C60
100
AcDbEntity
  8
IFS_FIBER_OPTICS
100
AcDbCircle
 10
561.6031256926537
 20
-1.069978368344493
 30
0.0
 40
3.556
100
AcDbArc
 50
213.8584366594589
 51
326.1415633405437
  0
LINE
  5
C7B
330
C60
100
AcDbEntity
  8
IFS_FIBER_OPTICS
100
AcDbLine
 10
555.2531256926536
 20
0.9112216316555361
 30
0.0
 11
558.650164033573
 21
0.9112216316555361
 31
0.0
  0
LINE
  5
C7C
330
C60
100
AcDbEntity
  8
IFS_FIBER_OPTICS
100
AcDbLine
 10
564.5560873517341
 20
0.9112216316555361
 30
0.0
 11
567.9531256926536
 21
0.9112216316555645
 31
0.0
  0
ARC
  5
C7D
330
C60
100
AcDbEntity
  8
IFS_FIBER_OPTICS
100
AcDbCircle
 10
561.6031256926537
 20
-1.069978368344493
 30
0.0
 40
3.556
100
AcDbArc
 50
33.85843665945614
 51
146.1415633405438
  0
LWPOLYLINE
  5
C7E
330
C60
100
AcDbEntity
  8
IFS_FIBER_OPTICS
100
AcDbPolyline
 90
        2
 70
     0
 43
0.254
 10
556.8478178704984
 20
14.51837294279903
 10
558.6554051312607
 20
14.51837294279903
  0
MTEXT
  5
C7F
330
C60
100
AcDbEntity
  8
IFS_FIBER_OPTICS
100
AcDbMText
 10
560.7983665348775
 20
39.72276175080185
 30
0.0
 40
2.54
 41
36.66489999999999
 71
     4
 72
     5
  1
{\fArial|b0|i0|c0|p34;VIDEO OUT}
1001
ACAD
1000
MTEXTBEGIN
1070
    73
1070
     1
1070
    44
1040
1.0
1070
    74
1070
     0
1000
MTEXTEND
  0
INSERT
  5
C80
330
C60
100
AcDbEntity
  8
IFS_FIBER_OPTICS
100
AcDbBlockReference
  2
BNC
 10
581.1800257336999
 20
35.05147101181444
 30
0.0
 41
25.4
 42
25.4
 43
25.4
  0
LINE
  5
C81
330
C60
100
AcDbEntity
  8
IFS_FIBER_OPTICS
100
AcDbLine
 10
581.1800257336999
 20
117.5174108766424
 30
0.0
 11
402.6180257336998
 21
117.5174108766424
 31
0.0
  0
LINE
  5
C82
330
C60
100
AcDbEntity
  8
IFS_FIBER_OPTICS
100
AcDbLine
 10
581.1800257336999
 20
104.8174108766424
 30
0.0
 11
402.6180257336998
 21
104.8174108766424
 31
0.0
  0
MTEXT
  5
C83
330
C60
100
AcDbEntity
  8
IFS_FIBER_OPTICS
100
AcDbMText
 10
404.5843733103455
 20
56.96844765544532
 30
0.0
 40
2.54
 41
36.66489999999999
 71
     1
 72
     5
  1
{\fArial|b0|i0|c0|p34;AGC LEVEL}
1001
ACAD
1000
MTEXTBEGIN
1070
    73
1070
     1
1070
    44
1040
1.0
1070
    74
1070
     0
1000
MTEXTEND
  0
MTEXT
  5
C84
330
C60
100
AcDbEntity
  8
IFS_FIBER_OPTICS
100
AcDbMText
 10
404.5843733103455
 20
69.66844765544533
 30
0.0
 40
2.54
 41
36.66489999999999
 71
     1
 72
     5
  1
{\fArial|b0|i0|c0|p34;VIDEO OUT}
1001
ACAD
1000
MTEXTBEGIN
1070
    73
1070
     1
1070
    44
1040
1.0
1070
    74
1070
     0
1000
MTEXTEND
  0
HATCH
  5
C85
330
C60
100
AcDbEntity
  8
VORDERGRUND
 62
   252
100
AcDbHatch
 10
0.0
 20
0.0
 30
0.0
210
0.0
220
0.0
230
1.0
  2
SOLID
 70
     1
 71
     0
 91
        8
 92
        1
 93
        1
 72
     4
 94
        3
 73
     0
 74
     0
 95
       41
 96
       37
 40
0.0
 40
0.0
 40
0.0
 40
0.0
 40
1.0
 40
1.0
 40
1.0
 40
2.0
 40
2.0
 40
2.0
 40
3.0
 40
3.0
 40
3.0
 40
4.0
 40
4.0
 40
4.0
 40
5.0
 40
5.0
 40
5.0
 40
6.0
 40
6.0
 40
6.0
 40
7.0
 40
7.0
 40
7.0
 40
8.0
 40
8.0
 40
8.0
 40
9.0
 40
9.0
 40
9.0
 40
10.0
 40
10.0
 40
10.0
 40
11.0
 40
11.0
 40
11.0
 40
12.0
 40
12.0
 40
12.0
 40
12.0
 10
498.9698740179095
 20
67.71888898054647
 10
498.9698740179095
 20
67.71888898054647
 10
497.3880239745068
 20
67.71888898054647
 10
497.3880239745068
 20
67.71888898054647
 10
497.3880239745068
 20
67.71888898054647
 10
497.3880239745068
 20
70.08504946231721
 10
497.3880239745068
 20
70.08504946231721
 10
497.3880239745068
 20
70.08504946231721
 10
495.5691513616594
 20
70.08504946231721
 10
495.5691513616594
 20
70.08504946231721
 10
495.5691513616594
 20
70.08504946231721
 10
495.5691513616594
 20
67.71888898054647
 10
495.5691513616594
 20
67.71888898054647
 10
495.5691513616594
 20
67.71888898054647
 10
493.9961207627012
 20
67.71888898054647
 10
493.9961207627012
 20
67.71888898054647
 10
493.9961207627012
 20
67.71888898054647
 10
493.9961207627012
 20
73.71852276960897
 10
493.9961207627012
 20
73.71852276960897
 10
493.9961207627012
 20
73.71852276960897
 10
495.5691513616594
 20
73.71852276960897
 10
495.5691513616594
 20
73.71852276960897
 10
495.5691513616594
 20
73.71852276960897
 10
495.5691513616594
 20
71.51180130693536
 10
495.5691513616594
 20
71.51180130693536
 10
495.5691513616594
 20
71.51180130693536
 10
497.3880239745068
 20
71.51180130693536
 10
497.3880239745068
 20
71.51180130693536
 10
497.3880239745068
 20
71.51180130693536
 10
497.3880239745068
 20
73.71852276960897
 10
497.3880239745068
 20
73.71852276960897
 10
497.3880239745068
 20
73.71852276960897
 10
498.9698740179095
 20
73.71852276960897
 10
498.9698740179095
 20
73.71852276960897
 10
498.9698740179095
 20
73.71852276960897
 10
498.9698740179095
 20
67.71888898054647
 10
498.9698740179095
 20
67.71888898054647
 97
        0
 92
        1
 93
        1
 72
     4
 94
        3
 73
     0
 74
     0
 95
       35
 96
       31
 40
0.0
 40
0.0
 40
0.0
 40
0.0
 40
1.0
 40
1.0
 40
1.0
 40
2.0
 40
2.0
 40
2.0
 40
3.0
 40
3.0
 40
3.0
 40
4.0
 40
4.0
 40
4.0
 40
5.0
 40
5.0
 40
5.0
 40
6.0
 40
6.0
 40
6.0
 40
7.0
 40
7.0
 40
7.0
 40
8.0
 40
8.0
 40
8.0
 40
9.0
 40
9.0
 40
9.0
 40
10.0
 40
10.0
 40
10.0
 40
10.0
 10
493.4952038790206
 20
68.87981725745601
 10
492.88018543284
 20
67.9936697965187
 10
492.3088507974234
 20
67.5770888503381
 10
491.1227733234651
 20
67.5770888503381
 10
489.4353655543678
 20
67.5770888503381
 10
488.3457507540206
 20
68.97731345971317
 10
488.3457507540206
 20
70.75856562985189
 10
488.3457507540206
 20
72.45120994408797
 10
489.3299456324929
 20
73.86032289981733
 10
491.1402744085345
 20
73.86032289981733
 10
492.1331509276318
 20
73.86032289981733
 10
492.8449076550623
 20
73.47040699269917
 10
493.4513822644372
 20
72.55752559078939
 10
493.4513822644372
 20
72.55752559078939
 10
492.2385708495068
 20
71.75109763940065
 10
492.2385708495068
 20
71.75109763940065
 10
491.9925910317984
 20
72.17656693193532
 10
491.676193462354
 20
72.42461380693533
 10
491.1489560491595
 20
72.42461380693533
 10
490.4811587401317
 20
72.42461380693533
 10
489.8396819606179
 20
71.82764766110188
 10
489.8396819606179
 20
70.75856562985189
 10
489.8396819606179
 20
69.56043032169225
 10
490.5337997991595
 20
69.01279794322011
 10
491.1929154675623
 20
69.01279794322011
 10
491.7641122991596
 20
69.01279794322011
 10
492.0277310057567
 20
69.29632930172704
 10
492.2737108234651
 20
69.70395299964355
 10
492.2737108234651
 20
69.70395299964355
 10
493.4952038790206
 20
68.87981725745601
 10
493.4952038790206
 20
68.87981725745601
 97
        0
 92
        1
 93
        1
 72
     4
 94
        3
 73
     0
 74
     0
 95
       53
 96
       49
 40
0.0
 40
0.0
 40
0.0
 40
0.0
 40
1.0
 40
1.0
 40
1.0
 40
2.0
 40
2.0
 40
2.0
 40
3.0
 40
3.0
 40
3.0
 40
4.0
 40
4.0
 40
4.0
 40
5.0
 40
5.0
 40
5.0
 40
6.0
 40
6.0
 40
6.0
 40
7.0
 40
7.0
 40
7.0
 40
8.0
 40
8.0
 40
8.0
 40
9.0
 40
9.0
 40
9.0
 40
10.0
 40
10.0
 40
10.0
 40
11.0
 40
11.0
 40
11.0
 40
12.0
 40
12.0
 40
12.0
 40
13.0
 40
13.0
 40
13.0
 40
14.0
 40
14.0
 40
14.0
 40
15.0
 40
15.0
 40
15.0
 40
16.0
 40
16.0
 40
16.0
 40
16.0
 10
487.9414343477707
 20
69.53569453610191
 10
487.9414343477707
 20
68.21512053436584
 10
486.7463996255484
 20
67.5770888503381
 10
485.6216448512428
 20
67.5770888503381
 10
484.3209835014164
 20
67.5770888503381
 10
483.6531861923886
 20
68.07338930606727
 10
483.1259487791942
 20
68.70253264374094
 10
483.1259487791942
 20
68.70253264374094
 10
484.0838231281526
 20
69.64201018280334
 10
484.0838231281526
 20
69.64201018280334
 10
484.4880017305832
 20
69.12793303436581
 10
485.0153080456873
 20
68.87092891110194
 10
485.6041437661734
 20
68.87092891110194
 10
486.0874217609651
 20
68.87092891110194
 10
486.4125009710345
 20
69.11015634165744
 10
486.4125009710345
 20
69.46472556908805
 10
486.4125009710345
 20
69.84582203176171
 10
486.1251800074929
 20
69.9644022183935
 10
485.3403872557568
 20
70.12942229217845
 10
485.3403872557568
 20
70.12942229217845
 10
485.1295474120068
 20
70.17372622012965
 10
485.1295474120068
 20
70.17372622012965
 10
484.1840754067984
 20
70.3723015239492
 10
483.4070685708609
 20
70.90918520450475
 10
483.4070685708609
 20
71.98150562551166
 10
483.4070685708609
 20
73.1602105951298
 10
484.3649429198193
 20
73.8692112461714
 10
485.6303264918678
 20
73.8692112461714
 10
486.7025780109651
 20
73.8692112461714
 10
487.3966958495067
 20
73.40839527394916
 10
487.8185133408261
 20
72.92980260901856
 10
487.8185133408261
 20
72.92980260901856
 10
486.8870973252012
 20
72.00810176266452
 10
486.8870973252012
 20
72.00810176266452
 10
486.5968824814512
 20
72.31829816023389
 10
486.1575639050624
 20
72.56641393714369
 10
485.6566470213818
 20
72.56641393714369
 10
485.3140667262429
 20
72.56641393714369
 10
484.9274581107914
 20
72.40690601613676
 10
484.9274581107914
 20
72.00810176266452
 10
484.9274581107914
 20
71.64478199269922
 10
485.3299141654789
 20
71.51297263940057
 10
485.8411663356179
 20
71.40541675832412
 10
485.8411663356179
 20
71.40541675832412
 10
486.0521439831873
 20
71.36111283037269
 10
486.0521439831873
 20
71.36111283037269
 10
486.9079057019373
 20
71.18148555172695
 10
487.9414343477707
 20
70.91800464894925
 10
487.9414343477707
 20
69.53569453610191
 97
        0
 92
        1
 93
        1
 72
     4
 94
        3
 73
     0
 74
     0
 95
       17
 96
       13
 40
0.0
 40
0.0
 40
0.0
 40
0.0
 40
1.0
 40
1.0
 40
1.0
 40
2.0
 40
2.0
 40
2.0
 40
3.0
 40
3.0
 40
3.0
 40
4.0
 40
4.0
 40
4.0
 40
4.0
 10
482.9413605630484
 20
70.72308114634495
 10
482.9413605630484
 20
68.9595367670048
 10
481.9306384493331
 20
67.5770888503381
 10
480.1821146863122
 20
67.5770888503381
 10
478.442134760097
 20
67.5770888503381
 10
477.4227999076664
 20
68.9595367670048
 10
477.4227999076664
 20
70.72308114634495
 10
477.4227999076664
 20
72.47780608124083
 10
478.442134760097
 20
73.8692112461714
 10
480.1820457844026
 20
73.8692112461714
 10
481.9306384493331
 20
73.8692112461714
 10
482.9413605630484
 20
72.47780608124083
 10
482.9413605630484
 20
70.72308114634495
 97
        0
 92
        1
 93
        1
 72
     4
 94
        3
 73
     0
 74
     0
 95
       26
 96
       22
 40
0.0
 40
0.0
 40
0.0
 40
0.0
 40
1.0
 40
1.0
 40
1.0
 40
2.0
 40
2.0
 40
2.0
 40
3.0
 40
3.0
 40
3.0
 40
4.0
 40
4.0
 40
4.0
 40
5.0
 40
5.0
 40
5.0
 40
6.0
 40
6.0
 40
6.0
 40
7.0
 40
7.0
 40
7.0
 40
7.0
 10
477.0274407496803
 20
69.39389440589355
 10
477.0274407496803
 20
68.38351680172684
 10
476.0959558321457
 20
67.71888898054647
 10
475.1555825682568
 20
67.71888898054647
 10
475.1555825682568
 20
67.71888898054647
 10
472.0888274684304
 20
67.71888898054647
 10
472.0888274684304
 20
67.71888898054647
 10
472.0888274684304
 20
67.71888898054647
 10
472.0888274684304
 20
73.71852276960897
 10
472.0888274684304
 20
73.71852276960897
 10
472.0888274684304
 20
73.71852276960897
 10
474.900783306104
 20
73.71852276960897
 10
474.900783306104
 20
73.71852276960897
 10
475.9816475639164
 20
73.71852276960897
 10
476.7638220430832
 20
73.17791838592836
 10
476.7638220430832
 20
72.07018238332409
 10
476.7638220430832
 20
71.12188539981719
 10
475.9377570474233
 20
70.83835404131026
 10
475.9377570474233
 20
70.83835404131026
 10
475.9377570474233
 20
70.82939679304638
 10
477.0274407496803
 20
70.58128101613658
 10
477.0274407496803
 20
69.39389440589355
 97
        0
 92
       16
 93
        1
 72
     4
 94
        3
 73
     0
 74
     0
 95
       17
 96
       13
 40
0.0
 40
0.0
 40
0.0
 40
0.0
 40
1.0
 40
1.0
 40
1.0
 40
2.0
 40
2.0
 40
2.0
 40
3.0
 40
3.0
 40
3.0
 40
4.0
 40
4.0
 40
4.0
 40
4.0
 10
481.4649993434303
 20
70.72308114634495
 10
481.4649993434303
 20
71.66248978349779
 10
481.0345002114859
 20
72.42461380693533
 10
480.1821146863122
 20
72.42461380693533
 10
479.3297980630484
 20
72.42461380693533
 10
478.9079116698193
 20
71.66248978349779
 10
478.9079116698193
 20
70.72308114634495
 10
478.9079116698193
 20
69.77492196665742
 10
479.3297291611387
 20
69.01279794322011
 10
480.1821146863122
 20
69.01279794322011
 10
481.0345002114859
 20
69.01279794322011
 10
481.4649993434303
 20
69.77492196665742
 10
481.4649993434303
 20
70.72308114634495
 97
        0
 92
       16
 93
        1
 72
     4
 94
        3
 73
     0
 74
     0
 95
       20
 96
       16
 40
0.0
 40
0.0
 40
0.0
 40
0.0
 40
1.0
 40
1.0
 40
1.0
 40
2.0
 40
2.0
 40
2.0
 40
3.0
 40
3.0
 40
3.0
 40
4.0
 40
4.0
 40
4.0
 40
5.0
 40
5.0
 40
5.0
 40
5.0
 10
475.2346819606178
 20
71.90164831214372
 10
475.2346819606178
 20
72.23857865068533
 10
475.0062721298887
 20
72.46898663679633
 10
474.6636229328401
 20
72.46898663679633
 10
474.6636229328401
 20
72.46898663679633
 10
473.5651197861386
 20
72.46898663679633
 10
473.5651197861386
 20
72.46898663679633
 10
473.5651197861386
 20
72.46898663679633
 10
473.5651197861386
 20
71.35229338592842
 10
473.5651197861386
 20
71.35229338592842
 10
473.5651197861386
 20
71.35229338592842
 10
474.6372335014164
 20
71.35229338592842
 10
474.6372335014164
 20
71.35229338592842
 10
475.0238421168679
 20
71.35229338592842
 10
475.2346819606178
 20
71.63582474443535
 10
475.2346819606178
 20
71.90164831214372
 97
        0
 92
       16
 93
        1
 72
     4
 94
        3
 73
     0
 74
     0
 95
       20
 96
       16
 40
0.0
 40
0.0
 40
0.0
 40
0.0
 40
1.0
 40
1.0
 40
1.0
 40
2.0
 40
2.0
 40
2.0
 40
3.0
 40
3.0
 40
3.0
 40
4.0
 40
4.0
 40
4.0
 40
5.0
 40
5.0
 40
5.0
 40
5.0
 10
475.4280896212081
 20
69.56222177134498
 10
475.4280896212081
 20
69.90790265242129
 10
475.1732214571456
 20
70.14706118106722
 10
474.6372335014164
 20
70.14706118106722
 10
474.6372335014164
 20
70.14706118106722
 10
473.5651197861386
 20
70.14706118106722
 10
473.5651197861386
 20
70.14706118106722
 10
473.5651197861386
 20
70.14706118106722
 10
473.5651197861386
 20
68.96842511335887
 10
473.5651197861386
 20
68.96842511335887
 10
473.5651197861386
 20
68.96842511335887
 10
474.6636229328401
 20
68.96842511335887
 10
474.6636229328401
 20
68.96842511335887
 10
475.1116920517637
 20
68.96842511335887
 10
475.4280896212081
 20
69.12793303436581
 10
475.4280896212081
 20
69.56222177134498
 97
        0
 75
     0
 76
     1
 98
        1
 10
472.0888274684304
 20
75.52313268714363
  0
MTEXT
  5
C86
330
C60
100
AcDbEntity
  8
IFS_FIBER_OPTICS
100
AcDbMText
 10
485.6267013086953
 20
95.77325649353554
 30
0.0
 40
2.54
 41
59.61232442500453
 71
     5
 72
     5
  1
{\fArial|b0|i0|c0|p34;LTC 4642\PVIDEO RECEIVER}
1001
ACAD
1000
MTEXTBEGIN
1070
    73
1070
     1
1070
    44
1040
1.0
1070
    74
1070
     0
1000
MTEXTEND
  0
LINE
  5
C87
330
C60
100
AcDbEntity
  8
IFS_FIBER_OPTICS
100
AcDbLine
 10
415.5531256926535
 20
114.7032216316555
 30
0.0
 11
418.9501640335731
 21
114.7032216316555
 31
0.0
  0
LINE
  5
C88
330
C60
100
AcDbEntity
  8
IFS_FIBER_OPTICS
100
AcDbLine
 10
415.5531256926535
 20
110.7408216316555
 30
0.0
 11
418.9501640335731
 21
110.7408216316555
 31
0.0
  0
ARC
  5
C89
330
C60
100
AcDbEntity
  8
IFS_FIBER_OPTICS
100
AcDbCircle
 10
415.5531256926535
 20
112.7220216316555
 30
0.0
 40
1.981199999999999
100
AcDbArc
 50
90.0
 51
270.0
  0
ARC
  5
C8A
330
C60
100
AcDbEntity
  8
IFS_FIBER_OPTICS
100
AcDbCircle
 10
421.9031256926536
 20
112.7220216316555
 30
0.0
 40
3.556
100
AcDbArc
 50
33.85843665945614
 51
146.1415633405438
  0
LINE
  5
C8B
330
C60
100
AcDbEntity
  8
IFS_FIBER_OPTICS
100
AcDbLine
 10
424.8560873517342
 20
114.7032216316555
 30
0.0
 11
428.2531256926536
 21
114.7032216316555
 31
0.0
  0
LINE
  5
C8C
330
C60
100
AcDbEntity
  8
IFS_FIBER_OPTICS
100
AcDbLine
 10
424.8560873517342
 20
110.7408216316555
 30
0.0
 11
428.2531256926536
 21
110.7408216316555
 31
0.0
  0
ARC
  5
C8D
330
C60
100
AcDbEntity
  8
IFS_FIBER_OPTICS
100
AcDbCircle
 10
421.9031256926536
 20
112.7220216316555
 30
0.0
 40
3.556
100
AcDbArc
 50
213.8584366594589
 51
326.1415633405437
  0
ARC
  5
C8E
330
C60
100
AcDbEntity
  8
IFS_FIBER_OPTICS
100
AcDbCircle
 10
428.2531256926536
 20
112.7220216316555
 30
0.0
 40
1.981199999999999
100
AcDbArc
 50
270.0
 51
90.0
  0
MTEXT
  5
C8F
330
C60
100
AcDbEntity
  8
IFS_FIBER_OPTICS
100
AcDbMText
 10
558.7578502570736
 20
87.34776175080179
 30
0.0
 40
2.54
 41
36.66489999999999
 71
     4
 72
     5
  1
{\fArial|b0|i0|c0|p34;OPTICAL IN}
1001
ACAD
1000
MTEXTBEGIN
1070
    73
1070
     1
1070
    44
1040
1.0
1070
    74
1070
     0
1000
MTEXTEND
  0
INSERT
  5
C90
330
C60
100
AcDbEntity
  8
IFS_FIBER_OPTICS
100
AcDbBlockReference
  2
ST_CONN
 10
439.0615358617485
 20
-2.009598568914952
 30
0.0
 41
25.4
 42
25.4
 43
25.4
  0
LINE
  5
C91
330
C60
100
AcDbEntity
  8
IFS_FIBER_OPTICS
100
AcDbLine
 10
555.2531256926536
 20
110.7408216316555
 30
0.0
 11
558.650164033573
 21
110.7408216316555
 31
0.0
  0
LINE
  5
C92
330
C60
100
AcDbEntity
  8
IFS_FIBER_OPTICS
100
AcDbLine
 10
555.2531256926536
 20
114.7032216316555
 30
0.0
 11
558.650164033573
 21
114.7032216316555
 31
0.0
  0
ARC
  5
C93
330
C60
100
AcDbEntity
  8
IFS_FIBER_OPTICS
100
AcDbCircle
 10
555.2531256926536
 20
112.7220216316555
 30
0.0
 40
1.981199999999999
100
AcDbArc
 50
90.0
 51
270.0
  0
ARC
  5
C94
330
C60
100
AcDbEntity
  8
IFS_FIBER_OPTICS
100
AcDbCircle
 10
561.6031256926537
 20
112.7220216316555
 30
0.0
 40
3.556
100
AcDbArc
 50
33.85843665945614
 51
146.1415633405438
  0
LINE
  5
C95
330
C60
100
AcDbEntity
  8
IFS_FIBER_OPTICS
100
AcDbLine
 10
564.5560873517341
 20
114.7032216316555
 30
0.0
 11
567.9531256926536
 21
114.7032216316555
 31
0.0
  0
LINE
  5
C96
330
C60
100
AcDbEntity
  8
IFS_FIBER_OPTICS
100
AcDbLine
 10
564.5560873517341
 20
110.7408216316555
 30
0.0
 11
567.9531256926536
 21
110.7408216316555
 31
0.0
  0
ARC
  5
C97
330
C60
100
AcDbEntity
  8
IFS_FIBER_OPTICS
100
AcDbCircle
 10
561.6031256926537
 20
112.7220216316555
 30
0.0
 40
3.556
100
AcDbArc
 50
213.8584366594589
 51
326.1415633405437
  0
ARC
  5
C98
330
C60
100
AcDbEntity
  8
IFS_FIBER_OPTICS
100
AcDbCircle
 10
567.9531256926536
 20
112.7220216316555
 30
0.0
 40
1.981199999999999
100
AcDbArc
 50
270.0
 51
90.0
  0
ENDBLK
  5
C62
330
C60
100
AcDbEntity
  8
0
100
AcDbBlockEnd
  0
BLOCK
  5
CA6
330
C9B
100
AcDbEntity
  8
0
100
AcDbBlockBegin
  2
*D48
 70
     1
 10
0.0
 20
0.0
 30
0.0
  3
*D48
  1

  0
LINE
  5
CA9
330
C9B
100
AcDbEntity
  8
0
 62
     0
100
AcDbLine
 10
402.6180257336998
 20
118.4549108766424
 30
0.0
 11
402.6180257336998
 21
129.7514825811298
 31
0.0
  0
LINE
  5
CAA
330
C9B
100
AcDbEntity
  8
0
 62
     0
100
AcDbLine
 10
580.9606230333947
 20
118.4549108766424
 30
0.0
 11
580.9606230333947
 21
129.7514825811298
 31
0.0
  0
LINE
  5
CAB
330
C9B
100
AcDbEntity
  8
0
 62
     0
100
AcDbLine
 10
405.3180257336998
 20
127.0514825811299
 30
0.0
 11
483.5643243835471
 21
127.0514825811299
 31
0.0
  0
LINE
  5
CAC
330
C9B
100
AcDbEntity
  8
0
 62
     0
100
AcDbLine
 10
578.2606230333946
 20
127.0514825811299
 30
0.0
 11
500.0143243835472
 21
127.0514825811299
 31
0.0
  0
SOLID
  5
CAD
330
C9B
100
AcDbEntity
  8
0
 62
     0
100
AcDbTrace
 10
405.3180257336998
 20
127.5014825811298
 30
0.0
 11
405.3180257336998
 21
126.6014825811299
 31
0.0
 12
402.6180257336998
 22
127.0514825811299
 32
0.0
 13
402.6180257336998
 23
127.0514825811299
 33
0.0
  0
SOLID
  5
CAE
330
C9B
100
AcDbEntity
  8
0
 62
     0
100
AcDbTrace
 10
578.2606230333946
 20
127.5014825811298
 30
0.0
 11
578.2606230333946
 21
126.6014825811299
 31
0.0
 12
580.9606230333947
 22
127.0514825811299
 32
0.0
 13
580.9606230333947
 23
127.0514825811299
 33
0.0
  0
MTEXT
  5
CAF
330
C9B
100
AcDbEntity
  8
0
 62
     0
100
AcDbMText
 10
491.7893243835472
 20
127.0514825811299
 30
0.0
 40
1.5
 41
0.0
 71
     5
 72
     1
  1
\A1;178.3 [7.03]
1001
ACAD
1000
MTEXTBEGIN
1070
    73
1070
     1
1070
    44
1040
1.0
1070
    74
1070
     0
1000
MTEXTEND
  0
POINT
  5
CB0
330
C9B
100
AcDbEntity
  8
DEFPOINTS
 62
     0
100
AcDbPoint
 10
402.6180257336998
 20
117.5174108766424
 30
0.0
  0
POINT
  5
CB1
330
C9B
100
AcDbEntity
  8
DEFPOINTS
 62
     0
100
AcDbPoint
 10
580.9606230333947
 20
117.5174108766424
 30
0.0
  0
POINT
  5
CB2
330
C9B
100
AcDbEntity
  8
DEFPOINTS
 62
     0
100
AcDbPoint
 10
580.9606230333947
 20
127.0514825811299
 30
0.0
  0
ENDBLK
  5
CA7
330
C9B
100
AcDbEntity
  8
0
100
AcDbBlockEnd
  0
BLOCK
  5
CC0
330
CB5
100
AcDbEntity
  8
0
100
AcDbBlockBegin
  2
*D49
 70
     1
 10
0.0
 20
0.0
 30
0.0
  3
*D49
  1

  0
LINE
  5
CC3
330
CB5
100
AcDbEntity
  8
0
 62
     0
100
AcDbLine
 10
402.6180257336998
 20
118.4549108766424
 30
0.0
 11
402.6180257336998
 21
126.4176918676032
 31
0.0
  0
LINE
  5
CC4
330
CB5
100
AcDbEntity
  8
0
 62
     0
100
AcDbLine
 10
581.1800257336999
 20
118.4549108766424
 30
0.0
 11
581.1800257336999
 21
126.4176918676032
 31
0.0
  0
LINE
  5
CC5
330
CB5
100
AcDbEntity
  8
0
 62
     0
100
AcDbLine
 10
405.3180257336998
 20
123.7176918676032
 30
0.0
 11
483.6740257336998
 21
123.7176918676032
 31
0.0
  0
LINE
  5
CC6
330
CB5
100
AcDbEntity
  8
0
 62
     0
100
AcDbLine
 10
578.4800257336999
 20
123.7176918676032
 30
0.0
 11
500.1240257336998
 21
123.7176918676032
 31
0.0
  0
SOLID
  5
CC7
330
CB5
100
AcDbEntity
  8
0
 62
     0
100
AcDbTrace
 10
405.3180257336998
 20
124.1676918676032
 30
0.0
 11
405.3180257336998
 21
123.2676918676032
 31
0.0
 12
402.6180257336998
 22
123.7176918676032
 32
0.0
 13
402.6180257336998
 23
123.7176918676032
 33
0.0
  0
SOLID
  5
CC8
330
CB5
100
AcDbEntity
  8
0
 62
     0
100
AcDbTrace
 10
578.4800257336999
 20
124.1676918676032
 30
0.0
 11
578.4800257336999
 21
123.2676918676032
 31
0.0
 12
581.1800257336999
 22
123.7176918676032
 32
0.0
 13
581.1800257336999
 23
123.7176918676032
 33
0.0
  0
MTEXT
  5
CC9
330
CB5
100
AcDbEntity
  8
0
 62
     0
100
AcDbMText
 10
491.8990257336998
 20
123.7176918676032
 30
0.0
 40
1.5
 41
0.0
 71
     5
 72
     1
  1
\A1;178.6 [7.04]
1001
ACAD
1000
MTEXTBEGIN
1070
    73
1070
     1
1070
    44
1040
1.0
1070
    74
1070
     0
1000
MTEXTEND
  0
POINT
  5
CCA
330
CB5
100
AcDbEntity
  8
DEFPOINTS
 62
     0
100
AcDbPoint
 10
402.6180257336998
 20
117.5174108766424
 30
0.0
  0
POINT
  5
CCB
330
CB5
100
AcDbEntity
  8
DEFPOINTS
 62
     0
100
AcDbPoint
 10
581.1800257336999
 20
117.5174108766424
 30
0.0
  0
POINT
  5
CCC
330
CB5
100
AcDbEntity
  8
DEFPOINTS
 62
     0
100
AcDbPoint
 10
581.1800257336999
 20
123.7176918676032
 30
0.0
  0
ENDBLK
  5
CC1
330
CB5
100
AcDbEntity
  8
0
100
AcDbBlockEnd
  0
BLOCK
  5
CDA
330
CCF
100
AcDbEntity
  8
0
100
AcDbBlockBegin
  2
*D50
 70
     1
 10
0.0
 20
0.0
 30
0.0
  3
*D50
  1

  0
LINE
  5
CDD
330
CCF
100
AcDbEntity
  8
0
 62
     0
100
AcDbLine
 10
401.6805257336998
 20
117.5174108766424
 30
0.0
 11
386.1968690800624
 21
117.5174108766424
 31
0.0
  0
LINE
  5
CDE
330
CCF
100
AcDbEntity
  8
0
 62
     0
100
AcDbLine
 10
401.6805257336998
 20
-6.434589123357624
 30
0.0
 11
386.1968690800624
 21
-6.43458912335762
 31
0.0
  0
LINE
  5
CDF
330
CCF
100
AcDbEntity
  8
0
 62
     0
100
AcDbLine
 10
388.8968690800624
 20
114.8174108766424
 30
0.0
 11
388.8968690800624
 21
57.64141087664242
 31
0.0
  0
LINE
  5
CE0
330
CCF
100
AcDbEntity
  8
0
 62
     0
100
AcDbLine
 10
388.8968690800624
 20
-3.734589123357621
 30
0.0
 11
388.8968690800624
 21
53.44141087664241
 31
0.0
  0
SOLID
  5
CE1
330
CCF
100
AcDbEntity
  8
0
 62
     0
100
AcDbTrace
 10
388.4468690800624
 20
114.8174108766424
 30
0.0
 11
389.3468690800624
 21
114.8174108766424
 31
0.0
 12
388.8968690800624
 22
117.5174108766424
 32
0.0
 13
388.8968690800624
 23
117.5174108766424
 33
0.0
  0
SOLID
  5
CE2
330
CCF
100
AcDbEntity
  8
0
 62
     0
100
AcDbTrace
 10
388.4468690800624
 20
-3.734589123357621
 30
0.0
 11
389.3468690800624
 21
-3.734589123357621
 31
0.0
 12
388.8968690800624
 22
-6.43458912335762
 32
0.0
 13
388.8968690800624
 23
-6.43458912335762
 33
0.0
  0
MTEXT
  5
CE3
330
CCF
100
AcDbEntity
  8
0
 62
     0
100
AcDbMText
 10
388.8968690800624
 20
55.54141087664248
 30
0.0
 40
1.5
 41
0.0
 71
     5
 72
     1
  1
\A1;124.0 [4.88]
1001
ACAD
1000
MTEXTBEGIN
1070
    73
1070
     1
1070
    44
1040
1.0
1070
    74
1070
     0
1000
MTEXTEND
  0
POINT
  5
CE4
330
CCF
100
AcDbEntity
  8
DEFPOINTS
 62
     0
100
AcDbPoint
 10
402.6180257336998
 20
117.5174108766424
 30
0.0
  0
POINT
  5
CE5
330
CCF
100
AcDbEntity
  8
DEFPOINTS
 62
     0
100
AcDbPoint
 10
402.6180257336998
 20
-6.434589123357625
 30
0.0
  0
POINT
  5
CE6
330
CCF
100
AcDbEntity
  8
DEFPOINTS
 62
     0
100
AcDbPoint
 10
388.8968690800624
 20
-6.43458912335762
 30
0.0
  0
ENDBLK
  5
CDB
330
CCF
100
AcDbEntity
  8
0
100
AcDbBlockEnd
  0
BLOCK
  5
CF4
330
CE9
100
AcDbEntity
  8
0
100
AcDbBlockBegin
  2
*D51
 70
     1
 10
0.0
 20
0.0
 30
0.0
  3
*D51
  1

  0
LINE
  5
CF7
330
CE9
100
AcDbEntity
  8
0
 62
     0
100
AcDbLine
 10
421.9031256926536
 20
-5.563478368344493
 30
0.0
 11
421.9031256926536
 21
-20.24965959256503
 31
0.0
  0
LINE
  5
CF8
330
CE9
100
AcDbEntity
  8
0
 62
     0
100
AcDbLine
 10
561.6031256926537
 20
-5.563478368344493
 30
0.0
 11
561.6031256926537
 21
-20.24965959256503
 31
0.0
  0
LINE
  5
CF9
330
CE9
100
AcDbEntity
  8
0
 62
     0
100
AcDbLine
 10
424.6031256926536
 20
-17.54965959256503
 30
0.0
 11
483.5281256926536
 21
-17.54965959256503
 31
0.0
  0
LINE
  5
CFA
330
CE9
100
AcDbEntity
  8
0
 62
     0
100
AcDbLine
 10
558.9031256926537
 20
-17.54965959256503
 30
0.0
 11
499.9781256926537
 21
-17.54965959256503
 31
0.0
  0
SOLID
  5
CFB
330
CE9
100
AcDbEntity
  8
0
 62
     0
100
AcDbTrace
 10
424.6031256926536
 20
-17.09965959256503
 30
0.0
 11
424.6031256926536
 21
-17.99965959256503
 31
0.0
 12
421.9031256926536
 22
-17.54965959256503
 32
0.0
 13
421.9031256926536
 23
-17.54965959256503
 33
0.0
  0
SOLID
  5
CFC
330
CE9
100
AcDbEntity
  8
0
 62
     0
100
AcDbTrace
 10
558.9031256926537
 20
-17.09965959256503
 30
0.0
 11
558.9031256926537
 21
-17.99965959256503
 31
0.0
 12
561.6031256926537
 22
-17.54965959256503
 32
0.0
 13
561.6031256926537
 23
-17.54965959256503
 33
0.0
  0
MTEXT
  5
CFD
330
CE9
100
AcDbEntity
  8
0
 62
     0
100
AcDbMText
 10
491.7531256926536
 20
-17.54965959256503
 30
0.0
 40
1.5
 41
0.0
 71
     5
 72
     1
  1
\A1;139.7 [5.50]
1001
ACAD
1000
MTEXTBEGIN
1070
    73
1070
     1
1070
    44
1040
1.0
1070
    74
1070
     0
1000
MTEXTEND
  0
POINT
  5
CFE
330
CE9
100
AcDbEntity
  8
DEFPOINTS
 62
     0
100
AcDbPoint
 10
421.9031256926536
 20
-4.625978368344493
 30
0.0
  0
POINT
  5
CFF
330
CE9
100
AcDbEntity
  8
DEFPOINTS
 62
     0
100
AcDbPoint
 10
561.6031256926537
 20
-4.625978368344493
 30
0.0
  0
POINT
  5
D00
330
CE9
100
AcDbEntity
  8
DEFPOINTS
 62
     0
100
AcDbPoint
 10
561.6031256926537
 20
-17.54965959256503
 30
0.0
  0
ENDBLK
  5
CF5
330
CE9
100
AcDbEntity
  8
0
100
AcDbBlockEnd
  0
BLOCK
  5
D0B
330
D0A
100
AcDbEntity
  8
0
100
AcDbBlockBegin
  2
4642RF
 70
     0
 10
0.0
 20
0.0
 30
0.0
  3
4642RF
  1

  0
MTEXT
  5
D0D
330
D0A
100
AcDbEntity
  8
IFS_FIBER_OPTICS
100
AcDbMText
 10
667.0808799211502
 20
48.0067492214717
 30
0.0
 40
2.54
 41
17.01546
 71
     5
 72
     5
  1
{\fArial|b0|i0|c0|p34;LEVEL}
1001
ACAD
1000
MTEXTBEGIN
1070
    73
1070
     1
1070
    44
1040
1.0
1070
    74
1070
     0
1000
MTEXTEND
  0
LINE
  5
D0E
102
{ACAD_REACTORS
330
ACB
102
}
330
D0A
100
AcDbEntity
  8
0
100
AcDbLine
 10
653.2816510006974
 20
118.2948205890012
 30
0.0
 11
653.2816510006974
 21
-10.10217941099878
 31
0.0
  0
LINE
  5
D0F
330
D0A
100
AcDbEntity
  8
0
100
AcDbLine
 10
678.1736510006973
 20
-10.10217941099878
 30
0.0
 11
678.1736510006973
 21
118.2948205890012
 31
0.0
  0
INSERT
  5
D10
330
D0A
100
AcDbEntity
  8
IFS_FIBER_OPTICS
100
AcDbBlockReference
  2
R3_SCREW_HEAD
 10
653.2816510006974
 20
-10.10217941099878
 30
0.0
 41
25.4
 42
25.4
 43
25.4
  0
LINE
  5
D11
330
D0A
100
AcDbEntity
  8
0
100
AcDbLine
 10
653.2816510006974
 20
-10.10217941099878
 30
0.0
 11
678.1736510006973
 21
-10.10217941099878
 31
0.0
  0
LINE
  5
D12
330
D0A
100
AcDbEntity
  8
0
100
AcDbLine
 10
677.7926510006974
 20
-3.066379410998763
 30
0.0
 11
677.7926510006974
 21
12.17362058900124
 31
0.0
  0
LINE
  5
D13
330
D0A
100
AcDbEntity
  8
0
100
AcDbLine
 10
653.6626510006974
 20
12.17362058900124
 30
0.0
 11
653.6626510006974
 21
-3.066379410998763
 31
0.0
  0
LINE
  5
D14
330
D0A
100
AcDbEntity
  8
0
100
AcDbLine
 10
653.6626510006974
 20
-3.066379410998763
 30
0.0
 11
677.7926510006974
 21
-3.066379410998763
 31
0.0
  0
MTEXT
  5
D15
330
D0A
100
AcDbEntity
  8
0
100
AcDbMText
 10
652.4105525393702
 20
6.723246683902857
 30
0.0
 40
2.54
 41
0.0
 71
     1
 72
     5
  1
{\fArial|b0|i0|c0|p34;   LTC 4642/00}
1001
ACAD
1000
MTEXTBEGIN
1070
    73
1070
     1
1070
    44
1040
1.0
1070
    74
1070
     0
1000
MTEXTEND
  0
LINE
  5
D16
330
D0A
100
AcDbEntity
  8
0
100
AcDbLine
 10
677.7926510006974
 20
12.17362058900124
 30
0.0
 11
653.6626510006974
 21
12.17362058900124
 31
0.0
  0
MTEXT
  5
D17
330
D0A
100
AcDbEntity
  8
IFS_FIBER_OPTICS
100
AcDbMText
 10
665.1172250262393
 20
22.60674922147168
 30
0.0
 40
2.54
 41
17.01546
 71
     5
 72
     5
  1
{\fArial|b0|i0|c0|p34;POWER}
1001
ACAD
1000
MTEXTBEGIN
1070
    73
1070
     1
1070
    44
1040
1.0
1070
    74
1070
     0
1000
MTEXTEND
  0
CIRCLE
  5
D18
330
D0A
100
AcDbEntity
  8
IFS_FIBER_OPTICS
100
AcDbCircle
 10
665.0164510006974
 20
28.6963205890012
 30
0.0
 40
1.981199999999999
  0
LWPOLYLINE
  5
D19
330
D0A
100
AcDbEntity
  8
IFS_FIBER_OPTICS
100
AcDbPolyline
 90
        2
 70
     1
 43
1.981199999999999
 10
664.0258510006974
 20
28.6963205890012
 42
1.0
 10
666.0070510006975
 20
28.6963205890012
 42
1.0
  0
MTEXT
  5
D1A
330
D0A
100
AcDbEntity
  8
IFS_FIBER_OPTICS
100
AcDbMText
 10
665.1172250262393
 20
35.3067492214717
 30
0.0
 40
2.54
 41
17.01546
 71
     5
 72
     5
  1
{\fArial|b0|i0|c0|p34;AGC}
1001
ACAD
1000
MTEXTBEGIN
1070
    73
1070
     1
1070
    44
1040
1.0
1070
    74
1070
     0
1000
MTEXTEND
  0
CIRCLE
  5
D1B
330
D0A
100
AcDbEntity
  8
IFS_FIBER_OPTICS
100
AcDbCircle
 10
665.0164510006974
 20
41.39632058900121
 30
0.0
 40
1.981199999999999
  0
LWPOLYLINE
  5
D1C
330
D0A
100
AcDbEntity
  8
IFS_FIBER_OPTICS
100
AcDbPolyline
 90
        2
 70
     1
 43
1.981199999999999
 10
664.0258510006974
 20
41.39632058900121
 42
1.0
 10
666.0070510006975
 20
41.39632058900121
 42
1.0
  0
LINE
  5
D1D
330
D0A
100
AcDbEntity
  8
0
100
AcDbLine
 10
678.1736510006973
 20
118.2948205890012
 30
0.0
 11
653.2816510006974
 21
118.2948205890012
 31
0.0
  0
MTEXT
  5
D1E
330
D0A
100
AcDbEntity
  8
IFS_FIBER_OPTICS
100
AcDbMText
 10
665.8335132107929
 20
107.8313977981226
 30
0.0
 40
2.412999999999999
 41
0.0
 71
     5
 72
     5
  1
{\fArial|b0|i0|c0|p34;VIDEO\PRECEIVER}
1001
ACAD
1000
MTEXTBEGIN
1070
    73
1070
     1
1070
    44
1040
1.0
1070
    74
1070
     0
1000
MTEXTEND
  0
MTEXT
  5
D1F
330
D0A
100
AcDbEntity
  8
IFS_FIBER_OPTICS
100
AcDbMText
 10
665.1172250262393
 20
75.46527231954525
 30
0.0
 40
2.54
 41
17.01546
 71
     5
 72
     5
  1
{\fArial|b0|i0|c0|p34;VIDEO\POUT}
1001
ACAD
1000
MTEXTBEGIN
1070
    73
1070
     1
1070
    44
1040
1.0
1070
    74
1070
     0
1000
MTEXTEND
  0
MTEXT
  5
D20
330
D0A
100
AcDbEntity
  8
IFS_FIBER_OPTICS
100
AcDbMText
 10
667.0808799211502
 20
60.43365391086672
 30
0.0
 40
2.54
 41
17.01546
 71
     5
 72
     5
  1
{\fArial|b0|i0|c0|p34;AGC}
1001
ACAD
1000
MTEXTBEGIN
1070
    73
1070
     1
1070
    44
1040
1.0
1070
    74
1070
     0
1000
MTEXTEND
  0
CIRCLE
  5
D21
330
D0A
100
AcDbEntity
  8
IFS_FIBER_OPTICS
100
AcDbCircle
 10
666.7310405937146
 20
54.09586892946612
 30
0.0
 40
3.174999999999999
  0
LWPOLYLINE
  5
D22
330
D0A
100
AcDbEntity
  8
IFS_FIBER_OPTICS
100
AcDbPolyline
 90
        2
 70
     1
 43
3.174999999999999
 10
665.1435405937146
 20
54.09586892946612
 42
1.0
 10
668.3185405937146
 20
54.09586892946612
 42
1.0
  0
CIRCLE
  5
D23
330
D0A
100
AcDbEntity
  8
IFS_FIBER_OPTICS
100
AcDbCircle
 10
665.0164510006974
 20
66.7963205890012
 30
0.0
 40
1.981199999999999
  0
LWPOLYLINE
  5
D24
330
D0A
100
AcDbEntity
  8
IFS_FIBER_OPTICS
100
AcDbPolyline
 90
        2
 70
     1
 43
1.981199999999999
 10
664.0258510006974
 20
66.7963205890012
 42
1.0
 10
666.0070510006975
 20
66.7963205890012
 42
1.0
  0
HATCH
  5
D25
330
D0A
100
AcDbEntity
  8
VORDERGRUND
 62
   253
100
AcDbHatch
 10
0.0
 20
0.0
 30
0.0
210
0.0
220
0.0
230
1.0
  2
SOLID
 70
     1
 71
     0
 91
        8
 92
        1
 93
        1
 72
     4
 94
        3
 73
     0
 74
     0
 95
       41
 96
       37
 40
0.0
 40
0.0
 40
0.0
 40
0.0
 40
1.0
 40
1.0
 40
1.0
 40
2.0
 40
2.0
 40
2.0
 40
3.0
 40
3.0
 40
3.0
 40
4.0
 40
4.0
 40
4.0
 40
5.0
 40
5.0
 40
5.0
 40
6.0
 40
6.0
 40
6.0
 40
7.0
 40
7.0
 40
7.0
 40
8.0
 40
8.0
 40
8.0
 40
9.0
 40
9.0
 40
9.0
 40
10.0
 40
10.0
 40
10.0
 40
11.0
 40
11.0
 40
11.0
 40
12.0
 40
12.0
 40
12.0
 40
12.0
 10
672.5992207580394
 20
93.37888667115779
 10
672.5992207580394
 20
93.37888667115779
 10
671.8082957363381
 20
93.37888667115779
 10
671.8082957363381
 20
93.37888667115779
 10
671.8082957363381
 20
93.37888667115779
 10
671.8082957363381
 20
94.5619669120432
 10
671.8082957363381
 20
94.5619669120432
 10
671.8082957363381
 20
94.5619669120432
 10
670.8988594299143
 20
94.5619669120432
 10
670.8988594299143
 20
94.5619669120432
 10
670.8988594299143
 20
94.5619669120432
 10
670.8988594299143
 20
93.37888667115779
 10
670.8988594299143
 20
93.37888667115779
 10
670.8988594299143
 20
93.37888667115779
 10
670.1123441304353
 20
93.37888667115779
 10
670.1123441304353
 20
93.37888667115779
 10
670.1123441304353
 20
93.37888667115779
 10
670.1123441304353
 20
96.37870356568903
 10
670.1123441304353
 20
96.37870356568903
 10
670.1123441304353
 20
96.37870356568903
 10
670.8988594299143
 20
96.37870356568903
 10
670.8988594299143
 20
96.37870356568903
 10
670.8988594299143
 20
96.37870356568903
 10
670.8988594299143
 20
95.27534283435223
 10
670.8988594299143
 20
95.27534283435223
 10
670.8988594299143
 20
95.27534283435223
 10
671.8082957363381
 20
95.27534283435223
 10
671.8082957363381
 20
95.27534283435223
 10
671.8082957363381
 20
95.27534283435223
 10
671.8082957363381
 20
96.37870356568903
 10
671.8082957363381
 20
96.37870356568903
 10
671.8082957363381
 20
96.37870356568903
 10
672.5992207580394
 20
96.37870356568903
 10
672.5992207580394
 20
96.37870356568903
 10
672.5992207580394
 20
96.37870356568903
 10
672.5992207580394
 20
93.37888667115779
 10
672.5992207580394
 20
93.37888667115779
 97
        0
 92
        1
 93
        1
 72
     4
 94
        3
 73
     0
 74
     0
 95
       35
 96
       31
 40
0.0
 40
0.0
 40
0.0
 40
0.0
 40
1.0
 40
1.0
 40
1.0
 40
2.0
 40
2.0
 40
2.0
 40
3.0
 40
3.0
 40
3.0
 40
4.0
 40
4.0
 40
4.0
 40
5.0
 40
5.0
 40
5.0
 40
6.0
 40
6.0
 40
6.0
 40
7.0
 40
7.0
 40
7.0
 40
8.0
 40
8.0
 40
8.0
 40
9.0
 40
9.0
 40
9.0
 40
10.0
 40
10.0
 40
10.0
 40
10.0
 10
669.861885688595
 20
93.95935080961265
 10
669.5543764655046
 20
93.5162770791439
 10
669.2687091477964
 20
93.30798660605362
 10
668.6756704108172
 20
93.30798660605362
 10
667.8319665262685
 20
93.30798660605362
 10
667.287159126095
 20
94.00809891074112
 10
667.287159126095
 20
94.89872499581057
 10
667.287159126095
 20
95.74504715292862
 10
667.7792565653311
 20
96.4496036307932
 10
668.6844209533519
 20
96.4496036307932
 10
669.1808592129006
 20
96.4496036307932
 10
669.5367375766159
 20
96.25464567723419
 10
669.8399748813033
 20
95.79820497627933
 10
669.8399748813033
 20
95.79820497627933
 10
669.2335691738381
 20
95.39499100058487
 10
669.2335691738381
 20
95.39499100058487
 10
669.1105792649839
 20
95.60772564685223
 10
668.9523804802616
 20
95.73174908435223
 10
668.6887617736645
 20
95.73174908435223
 10
668.3548631191505
 20
95.73174908435223
 10
668.0341247293936
 20
95.43326601143556
 10
668.0341247293936
 20
94.89872499581057
 10
668.0341247293936
 20
94.29965734173071
 10
668.3811836486644
 20
94.02584115249458
 10
668.7107414828658
 20
94.02584115249458
 10
668.9963398986645
 20
94.02584115249458
 10
669.1281492519631
 20
94.16760683174805
 10
669.2511391608173
 20
94.37141868070639
 10
669.2511391608173
 20
94.37141868070639
 10
669.861885688595
 20
93.95935080961265
 10
669.861885688595
 20
93.95935080961265
 97
        0
 92
        1
 93
        1
 72
     4
 94
        3
 73
     0
 74
     0
 95
       53
 96
       49
 40
0.0
 40
0.0
 40
0.0
 40
0.0
 40
1.0
 40
1.0
 40
1.0
 40
2.0
 40
2.0
 40
2.0
 40
3.0
 40
3.0
 40
3.0
 40
4.0
 40
4.0
 40
4.0
 40
5.0
 40
5.0
 40
5.0
 40
6.0
 40
6.0
 40
6.0
 40
7.0
 40
7.0
 40
7.0
 40
8.0
 40
8.0
 40
8.0
 40
9.0
 40
9.0
 40
9.0
 40
10.0
 40
10.0
 40
10.0
 40
11.0
 40
11.0
 40
11.0
 40
12.0
 40
12.0
 40
12.0
 40
13.0
 40
13.0
 40
13.0
 40
14.0
 40
14.0
 40
14.0
 40
15.0
 40
15.0
 40
15.0
 40
16.0
 40
16.0
 40
16.0
 40
16.0
 10
667.08500092297
 20
94.28728944893556
 10
667.08500092297
 20
93.62700244806751
 10
666.4874835618588
 20
93.30798660605362
 10
665.9251061747061
 20
93.30798660605362
 10
665.2747754997928
 20
93.30798660605362
 10
664.940876845279
 20
93.55613683391821
 10
664.6772581386817
 20
93.87070850275501
 10
664.6772581386817
 20
93.87070850275501
 10
665.156195313161
 20
94.34044727228627
 10
665.156195313161
 20
94.34044727228627
 10
665.3582846143763
 20
94.08340869806751
 10
665.6219377719282
 20
93.95490663643556
 10
665.9163556321714
 20
93.95490663643556
 10
666.1579946295671
 20
93.95490663643556
 10
666.3205342346019
 20
94.07452035171335
 10
666.3205342346019
 20
94.25180496542862
 10
666.3205342346019
 20
94.44235319676542
 10
666.1768737528311
 20
94.5016432900814
 10
665.7844773769631
 20
94.58415332697375
 10
665.7844773769631
 20
94.58415332697375
 10
665.679057455088
 20
94.60630529094945
 10
665.679057455088
 20
94.60630529094945
 10
665.2063214524839
 20
94.70559294285918
 10
664.817818034515
 20
94.97403478313696
 10
664.817818034515
 20
95.51019499364043
 10
664.817818034515
 20
96.09954747844946
 10
665.2967552089943
 20
96.45404780397029
 10
665.9294469950187
 20
96.45404780397029
 10
666.4655727545672
 20
96.45404780397029
 10
666.812631673838
 20
96.22363981785918
 10
667.0235404194977
 20
95.9843434853939
 10
667.0235404194977
 20
95.9843434853939
 10
666.5578324116852
 20
95.52349306221682
 10
666.5578324116852
 20
95.52349306221682
 10
666.4127249898102
 20
95.67859126100154
 10
666.1930657016158
 20
95.8026491494564
 10
665.9426072597755
 20
95.8026491494564
 10
665.7713171122061
 20
95.8026491494564
 10
665.5780128044804
 20
95.72289518895294
 10
665.5780128044804
 20
95.52349306221682
 10
665.5780128044804
 20
95.34183317723417
 10
665.7792408318242
 20
95.27592850058487
 10
666.0348669168936
 20
95.22215056004668
 10
666.0348669168936
 20
95.22215056004668
 10
666.1403557406783
 20
95.19999859607098
 10
666.1403557406783
 20
95.19999859607098
 10
666.5682366000533
 20
95.11018495674807
 10
667.08500092297
 20
94.97844450535918
 10
667.08500092297
 20
94.28728944893556
 97
        0
 92
        1
 93
        1
 72
     4
 94
        3
 73
     0
 74
     0
 95
       17
 96
       13
 40
0.0
 40
0.0
 40
0.0
 40
0.0
 40
1.0
 40
1.0
 40
1.0
 40
2.0
 40
2.0
 40
2.0
 40
3.0
 40
3.0
 40
3.0
 40
4.0
 40
4.0
 40
4.0
 40
4.0
 10
664.5849640306089
 20
94.88098275405709
 10
664.5849640306089
 20
93.99921056438696
 10
664.0796029737511
 20
93.30798660605362
 10
663.2053410922408
 20
93.30798660605362
 10
662.3353511291331
 20
93.30798660605362
 10
661.8256837029178
 20
93.99921056438696
 10
661.8256837029178
 20
94.88098275405709
 10
661.8256837029178
 20
95.75834522150501
 10
662.3353511291331
 20
96.45404780397029
 10
663.2053066412859
 20
96.45404780397029
 10
664.0796029737511
 20
96.45404780397029
 10
664.5849640306089
 20
95.75834522150501
 10
664.5849640306089
 20
94.88098275405709
 97
        0
 92
        1
 93
        1
 72
     4
 94
        3
 73
     0
 74
     0
 95
       26
 96
       22
 40
0.0
 40
0.0
 40
0.0
 40
0.0
 40
1.0
 40
1.0
 40
1.0
 40
2.0
 40
2.0
 40
2.0
 40
3.0
 40
3.0
 40
3.0
 40
4.0
 40
4.0
 40
4.0
 40
5.0
 40
5.0
 40
5.0
 40
6.0
 40
6.0
 40
6.0
 40
7.0
 40
7.0
 40
7.0
 40
7.0
 10
661.6280041239249
 20
94.21638938383139
 10
661.6280041239249
 20
93.71120058174808
 10
661.1622616651575
 20
93.37888667115779
 10
660.6920750332131
 20
93.37888667115779
 10
660.6920750332131
 20
93.37888667115779
 10
659.1586974832998
 20
93.37888667115779
 10
659.1586974832998
 20
93.37888667115779
 10
659.1586974832998
 20
93.37888667115779
 10
659.1586974832998
 20
96.37870356568903
 10
659.1586974832998
 20
96.37870356568903
 10
659.1586974832998
 20
96.37870356568903
 10
660.5646754021367
 20
96.37870356568903
 10
660.5646754021367
 20
96.37870356568903
 10
661.1051075310428
 20
96.37870356568903
 10
661.4961947706262
 20
96.10840137384876
 10
661.4961947706262
 20
95.55453337254666
 10
661.4961947706262
 20
95.0803848807932
 10
661.0831622727963
 20
94.93861920153973
 10
661.0831622727963
 20
94.93861920153973
 10
661.0831622727963
 20
94.93414057740778
 10
661.6280041239249
 20
94.81008268895292
 10
661.6280041239249
 20
94.21638938383139
 97
        0
 92
       16
 93
        1
 72
     4
 94
        3
 73
     0
 74
     0
 95
       17
 96
       13
 40
0.0
 40
0.0
 40
0.0
 40
0.0
 40
1.0
 40
1.0
 40
1.0
 40
2.0
 40
2.0
 40
2.0
 40
3.0
 40
3.0
 40
3.0
 40
4.0
 40
4.0
 40
4.0
 40
4.0
 10
663.8467834207999
 20
94.88098275405709
 10
663.8467834207999
 20
95.35068707263349
 10
663.6315338548277
 20
95.73174908435223
 10
663.2053410922408
 20
95.73174908435223
 10
662.7791827806088
 20
95.73174908435223
 10
662.5682395839943
 20
95.35068707263349
 10
662.5682395839943
 20
94.88098275405709
 10
662.5682395839943
 20
94.40690316421335
 10
662.779148329654
 20
94.02584115249458
 10
663.2053410922408
 20
94.02584115249458
 10
663.6315338548277
 20
94.02584115249458
 10
663.8467834207999
 20
94.40690316421335
 10
663.8467834207999
 20
94.88098275405709
 97
        0
 92
       16
 93
        1
 72
     4
 94
        3
 73
     0
 74
     0
 95
       20
 96
       16
 40
0.0
 40
0.0
 40
0.0
 40
0.0
 40
1.0
 40
1.0
 40
1.0
 40
2.0
 40
2.0
 40
2.0
 40
3.0
 40
3.0
 40
3.0
 40
4.0
 40
4.0
 40
4.0
 40
5.0
 40
5.0
 40
5.0
 40
5.0
 10
660.7316247293936
 20
95.4702663369564
 10
660.7316247293936
 20
95.63873150622724
 10
660.6174198140291
 20
95.75393549928278
 10
660.4460952155047
 20
95.75393549928278
 10
660.4460952155047
 20
95.75393549928278
 10
659.8968436421539
 20
95.75393549928278
 10
659.8968436421539
 20
95.75393549928278
 10
659.8968436421539
 20
95.75393549928278
 10
659.8968436421539
 20
95.19558887384876
 10
659.8968436421539
 20
95.19558887384876
 10
659.8968436421539
 20
95.19558887384876
 10
660.4329004997929
 20
95.19558887384876
 10
660.4329004997929
 20
95.19558887384876
 10
660.6262048075186
 20
95.19558887384876
 10
660.7316247293936
 20
95.33735455310223
 10
660.7316247293936
 20
95.4702663369564
 97
        0
 92
       16
 93
        1
 72
     4
 94
        3
 73
     0
 74
     0
 95
       20
 96
       16
 40
0.0
 40
0.0
 40
0.0
 40
0.0
 40
1.0
 40
1.0
 40
1.0
 40
2.0
 40
2.0
 40
2.0
 40
3.0
 40
3.0
 40
3.0
 40
4.0
 40
4.0
 40
4.0
 40
5.0
 40
5.0
 40
5.0
 40
5.0
 10
660.8283285596887
 20
94.3005530665571
 10
660.8283285596887
 20
94.4733935070953
 10
660.7008944776574
 20
94.5929727714182
 10
660.4329004997929
 20
94.5929727714182
 10
660.4329004997929
 20
94.5929727714182
 10
659.8968436421539
 20
94.5929727714182
 10
659.8968436421539
 20
94.5929727714182
 10
659.8968436421539
 20
94.5929727714182
 10
659.8968436421539
 20
94.00365473756403
 10
659.8968436421539
 20
94.00365473756403
 10
659.8968436421539
 20
94.00365473756403
 10
660.4460952155047
 20
94.00365473756403
 10
660.4460952155047
 20
94.00365473756403
 10
660.6701297749665
 20
94.00365473756403
 10
660.8283285596887
 20
94.08340869806751
 10
660.8283285596887
 20
94.3005530665571
 97
        0
 75
     0
 76
     1
 98
        1
 10
659.1586974832998
 20
97.28100852445642
  0
ENDBLK
  5
D0C
330
D0A
100
AcDbEntity
  8
0
100
AcDbBlockEnd
  0
BLOCK
  5
D32
330
D31
100
AcDbEntity
  8
0
100
AcDbBlockBegin
  2
4642RR
 70
     0
 10
0.0
 20
0.0
 30
0.0
  3
4642RR
  1

  0
LINE
  5
D34
330
D31
100
AcDbEntity
  8
0
100
AcDbLine
 10
723.4871638765816
 20
-11.31437397395183
 30
0.0
 11
723.4871638765816
 21
117.0826260260481
 31
0.0
  0
LINE
  5
D35
330
D31
100
AcDbEntity
  8
0
100
AcDbLine
 10
721.9123638765815
 20
102.4014260260481
 30
0.0
 11
721.9123638765815
 21
3.341426026048168
 31
0.0
  0
SOLID
  5
D36
330
D31
100
AcDbEntity
  8
0
100
AcDbTrace
 10
721.9123638765815
 20
102.4014260260481
 30
0.0
 11
721.9123638765815
 21
3.341426026048168
 31
0.0
 12
723.4871638765816
 22
102.4014260260481
 32
0.0
 13
723.4871638765816
 23
3.341426026048111
 33
0.0
  0
LINE
  5
D37
330
D31
100
AcDbEntity
  8
0
100
AcDbLine
 10
698.5951638765815
 20
-11.31437397395183
 30
0.0
 11
698.5951638765815
 21
117.0826260260481
 31
0.0
  0
LINE
  5
D38
330
D31
100
AcDbEntity
  8
0
100
AcDbLine
 10
717.1371638765815
 20
3.341426026048168
 30
0.0
 11
717.1371638765815
 21
102.4014260260481
 31
0.0
  0
LINE
  5
D39
330
D31
100
AcDbEntity
  8
0
100
AcDbLine
 10
715.3591638765815
 20
3.341426026048168
 30
0.0
 11
715.3591638765815
 21
102.4014260260481
 31
0.0
  0
SOLID
  5
D3A
330
D31
100
AcDbEntity
  8
0
100
AcDbTrace
 10
715.3591638765815
 20
102.4014260260481
 30
0.0
 11
715.3591638765815
 21
3.341426026048168
 31
0.0
 12
717.1371638765815
 22
102.4014260260481
 32
0.0
 13
717.1371638765815
 23
3.341426026048168
 33
0.0
  0
SOLID
  5
D3B
330
D31
100
AcDbEntity
  8
0
100
AcDbTrace
 10
715.3591638765815
 20
102.4014260260481
 30
0.0
 11
715.3591638765815
 21
3.341426026048168
 31
0.0
 12
717.1371638765815
 22
102.4014260260481
 32
0.0
 13
717.1371638765815
 23
3.341426026048168
 33
0.0
  0
INSERT
  5
D3C
330
D31
100
AcDbEntity
  8
IFS_FIBER_OPTICS
100
AcDbBlockReference
  2
R3_1_INCH_REAR_SCREW
 10
698.5951638765815
 20
-11.31437397395183
 30
0.0
 41
25.4
 42
25.4
 43
25.4
  0
INSERT
  5
D3D
330
D31
100
AcDbEntity
  8
0
100
AcDbBlockReference
  2
CONNR3MOLEX
 10
709.5171638765815
 20
13.88242602604813
 30
0.0
 41
25.4
 42
25.4
 43
25.4
  0
LINE
  5
D3E
330
D31
100
AcDbEntity
  8
0
100
AcDbLine
 10
698.5951638765815
 20
-11.31437397395183
 30
0.0
 11
723.4871638765816
 21
-11.31437397395183
 31
0.0
  0
LINE
  5
D3F
330
D31
100
AcDbEntity
  8
0
100
AcDbLine
 10
721.8486167819262
 20
6.440226026048151
 30
0.0
 11
721.8486167819262
 21
10.50422602604817
 31
0.0
  0
LINE
  5
D40
330
D31
100
AcDbEntity
  8
0
100
AcDbLine
 10
717.220992865428
 20
10.50422602604811
 30
0.0
 11
717.220992865428
 21
6.440226026048151
 31
0.0
  0
SOLID
  5
D41
330
D31
100
AcDbEntity
  8
0
100
AcDbTrace
 10
717.220992865428
 20
10.50422602604811
 30
0.0
 11
717.220992865428
 21
6.440226026048151
 31
0.0
 12
721.8486167819262
 22
10.50422602604811
 32
0.0
 13
721.8486167819262
 23
6.440226026048151
 33
0.0
  0
LINE
  5
D42
330
D31
100
AcDbEntity
  8
0
100
AcDbLine
 10
717.220992865428
 20
6.440226026048151
 30
0.0
 11
721.8486167819262
 21
6.440226026048151
 31
0.0
  0
LINE
  5
D43
330
D31
100
AcDbEntity
  8
0
100
AcDbLine
 10
717.220992865428
 20
10.50422602604811
 30
0.0
 11
721.8486167819262
 21
10.50422602604811
 31
0.0
  0
INSERT
  5
D44
330
D31
100
AcDbEntity
  8
IFS_FIBER_OPTICS
100
AcDbBlockReference
  2
BNC_FEMALE_FRONT
 10
699.9262565923795
 20
29.82090033521515
 30
0.0
 41
25.4
 42
25.4
 43
25.4
  0
INSERT
  5
D45
330
D31
100
AcDbEntity
  8
IFS_FIBER_OPTICS
100
AcDbBlockReference
  2
ST_CONN_FRONT
 10
704.9269532651684
 20
78.2058393635084
 30
0.0
 41
25.4
 42
25.4
 43
25.4
  0
LINE
  5
D46
330
D31
100
AcDbEntity
  8
0
100
AcDbLine
 10
721.9123638765815
 20
93.94745855168958
 30
0.0
 11
721.9123638765815
 21
102.4014260260481
 31
0.0
  0
LINE
  5
D47
330
D31
100
AcDbEntity
  8
0
100
AcDbLine
 10
717.1371638765815
 20
102.4014260260481
 30
0.0
 11
717.1371638765815
 21
93.94745855168958
 31
0.0
  0
LINE
  5
D48
330
D31
100
AcDbEntity
  8
0
100
AcDbLine
 10
717.2209928654281
 20
99.09942602604809
 30
0.0
 11
721.8486167819262
 21
99.09942602604809
 31
0.0
  0
LINE
  5
D49
330
D31
100
AcDbEntity
  8
0
100
AcDbLine
 10
717.2209928654281
 20
95.03542602604815
 30
0.0
 11
721.8486167819262
 21
95.03542602604815
 31
0.0
  0
SOLID
  5
D4A
330
D31
100
AcDbEntity
  8
0
100
AcDbTrace
 10
717.2209928654281
 20
99.09942602604809
 30
0.0
 11
717.2209928654281
 21
95.03542602604815
 31
0.0
 12
721.8486167819262
 22
99.09942602604809
 32
0.0
 13
721.8486167819262
 23
95.03542602604815
 33
0.0
  0
LINE
  5
D4B
330
D31
100
AcDbEntity
  8
0
100
AcDbLine
 10
717.2209928654281
 20
99.09942602604809
 30
0.0
 11
717.2209928654281
 21
95.03542602604815
 31
0.0
  0
LINE
  5
D4C
330
D31
100
AcDbEntity
  8
0
100
AcDbLine
 10
721.8486167819262
 20
95.03542602604815
 30
0.0
 11
721.8486167819262
 21
99.09942602604814
 31
0.0
  0
LINE
  5
D4D
330
D31
100
AcDbEntity
  8
0
100
AcDbLine
 10
723.4871638765816
 20
117.0826260260481
 30
0.0
 11
698.5951638765815
 21
117.0826260260481
 31
0.0
  0
ENDBLK
  5
D33
330
D31
100
AcDbEntity
  8
0
100
AcDbBlockEnd
  0
ENDSEC
  0
SECTION
  2
ENTITIES
  0
MTEXT
  5
AC8
330
1F
100
AcDbEntity
  8
0
100
AcDbMText
 10
301.2824827948155
 20
-5.73037370518972
 30
0.0
 40
2.54
 41
0.0
 71
     1
 72
     5
  1
LTC 4641/60 Video Transmitter
1001
ACAD
1000
MTEXTBEGIN
1070
    73
1070
     1
1070
    44
1040
1.0
1070
    74
1070
     0
1000
MTEXTEND
  0
DIMENSION
  5
AC9
330
1F
100
AcDbEntity
  8
0
100
AcDbDimension
  2
*D40
 10
636.2404304155489
 20
-10.10217941099878
 30
0.0
 11
636.2404304155489
 21
54.09632058900132
 31
0.0
 70
    32
  3
STANDARD
100
AcDbAlignedDimension
 13
653.2816510006974
 23
118.2948205890012
 33
0.0
 14
653.2816510006974
 24
-10.10217941099878
 34
0.0
 50
90.0
100
AcDbRotatedDimension
  0
MTEXT
  5
ACC
330
1F
100
AcDbEntity
  8
0
100
AcDbMText
 10
427.8114286835542
 20
-47.28291402241656
 30
0.0
 40
5.08
 41
132.0799999999999
 71
     1
 72
     5
  1
LTC 4642/60 Video Receiver
1001
ACAD
1000
MTEXTBEGIN
1070
    73
1070
     1
1070
    44
1040
1.0
1070
    74
1070
     0
1000
MTEXTEND
  0
MTEXT
  5
ACD
330
1F
100
AcDbEntity
  8
0
100
AcDbMText
 10
628.1136047626419
 20
-33.90968184228187
 30
0.0
 40
5.08
 41
0.0
 71
     1
 72
     5
  1
LTC 4642/00 Rack Mount\P Video Receiver Module 
1001
ACAD
1000
MTEXTBEGIN
1070
    73
1070
     1
1070
    44
1040
1.0
1070
    74
1070
     0
1000
MTEXTEND
  0
MTEXT
  5
ACE
330
1F
100
AcDbEntity
  8
0
100
AcDbMText
 10
659.6647835836762
 20
-13.37221960076485
 30
0.0
 40
2.54
 41
15.2092460975305
 71
     1
 72
     5
  1
Front
1001
ACAD
1000
MTEXTBEGIN
1070
    73
1070
     1
1070
    44
1040
1.0
1070
    74
1070
     0
1000
MTEXTEND
  0
MTEXT
  5
ACF
330
1F
100
AcDbEntity
  8
0
100
AcDbMText
 10
704.6013107145044
 20
-12.89460483107365
 30
0.0
 40
2.54
 41
14.34144544542975
 71
     1
 72
     5
  1
Rear
1001
ACAD
1000
MTEXTBEGIN
1070
    73
1070
     1
1070
    44
1040
1.0
1070
    74
1070
     0
1000
MTEXTEND
  0
INSERT
  5
BDC
102
{ACAD_REACTORS
330
C3E
330
C58
102
}
330
1F
100
AcDbEntity
  8
0
100
AcDbBlockReference
  2
4641
 10
0.0
 20
0.0
 30
0.0
  0
DIMENSION
  5
C25
102
{ACAD_XDICTIONARY
360
C33
102
}
102
{ACAD_REACTORS
330
C3E
102
}
330
1F
100
AcDbEntity
  8
0
100
AcDbDimension
  2
*D44
 10
297.0838439194145
 20
26.65638103900304
 30
0.0
 11
297.0838439194145
 21
54.85038103900309
 31
0.0
 70
    32
  3
STANDARD
100
AcDbAlignedDimension
 13
315.053290466643
 23
83.04438103900304
 33
0.0
 14
315.053290466643
 24
26.65638103900303
 34
0.0
 50
90.0
100
AcDbRotatedDimension
  0
DIMENSION
  5
C3F
102
{ACAD_XDICTIONARY
360
C4D
102
}
102
{ACAD_REACTORS
330
C58
102
}
330
1F
100
AcDbEntity
  8
0
100
AcDbDimension
  2
*D45
 10
356.963290466643
 20
20.78203026263793
 30
0.0
 11
336.008290466643
 21
20.78203026263793
 31
0.0
 70
    32
  3
STANDARD
100
AcDbAlignedDimension
 13
315.053290466643
 23
26.65638103900303
 33
0.0
 14
356.963290466643
 24
26.65638103900303
 34
0.0
100
AcDbRotatedDimension
  0
INSERT
  5
C99
102
{ACAD_REACTORS
330
CCD
330
CE7
330
D01
102
}
330
1F
100
AcDbEntity
  8
0
100
AcDbBlockReference
  2
4642
 10
0.0
 20
0.0
 30
0.0
  0
DIMENSION
  5
CB4
102
{ACAD_XDICTIONARY
360
CC2
102
}
102
{ACAD_REACTORS
330
CCD
102
}
330
1F
100
AcDbEntity
  8
0
100
AcDbDimension
  2
*D49
 10
581.1800257336999
 20
123.7176918676032
 30
0.0
 11
491.8990257336998
 21
123.7176918676032
 31
0.0
 70
    32
  3
STANDARD
100
AcDbAlignedDimension
 13
402.6180257336998
 23
117.5174108766424
 33
0.0
 14
581.1800257336999
 24
117.5174108766424
 34
0.0
100
AcDbRotatedDimension
  0
DIMENSION
  5
CCE
102
{ACAD_XDICTIONARY
360
CDC
102
}
102
{ACAD_REACTORS
330
CE7
102
}
330
1F
100
AcDbEntity
  8
0
100
AcDbDimension
  2
*D50
 10
388.8968690800624
 20
-6.43458912335762
 30
0.0
 11
388.8968690800624
 21
55.54141087664248
 31
0.0
 70
    32
  3
STANDARD
100
AcDbAlignedDimension
 13
402.6180257336998
 23
117.5174108766424
 33
0.0
 14
402.6180257336998
 24
-6.434589123357625
 34
0.0
 50
90.0
100
AcDbRotatedDimension
  0
DIMENSION
  5
CE8
102
{ACAD_XDICTIONARY
360
CF6
102
}
102
{ACAD_REACTORS
330
D01
102
}
330
1F
100
AcDbEntity
  8
0
100
AcDbDimension
  2
*D51
 10
561.6031256926537
 20
-17.54965959256503
 30
0.0
 11
491.7531256926536
 21
-17.54965959256503
 31
0.0
 70
    32
  3
STANDARD
100
AcDbAlignedDimension
 13
421.9031256926536
 23
-4.625978368344493
 33
0.0
 14
561.6031256926537
 24
-4.625978368344493
 34
0.0
100
AcDbRotatedDimension
  0
INSERT
  5
D30
330
1F
100
AcDbEntity
  8
0
100
AcDbBlockReference
  2
4642RF
 10
0.0
 20
0.0
 30
0.0
  0
INSERT
  5
D4E
330
1F
100
AcDbEntity
  8
0
100
AcDbBlockReference
  2
4642RR
 10
0.0
 20
0.0
 30
0.0
  0
ENDSEC
  0
SECTION
  2
OBJECTS
  0
DICTIONARY
  5
C
330
0
100
AcDbDictionary
  3
ACAD_GROUP
350
D
  3
ACAD_LAYOUT
350
1A
  3
ACAD_MLINESTYLE
350
17
  3
ACAD_PLOTSETTINGS
350
19
  3
ACAD_PLOTSTYLENAME
350
E
  3
ACDBHEADERROUNDTRIPXREC
350
DAF
  3
ACDBVARIABLEDICTIONARY
350
319
  0
DICTIONARY
  5
4C7
330
1F
100
AcDbDictionary
280
     1
  3
ACAD_LAYOUTSELFREF
360
DD0
  0
DICTIONARY
  5
4C9
330
1B
100
AcDbDictionary
280
     1
  3
ACAD_LAYOUTSELFREF
360
DCF
  0
DICTIONARY
  5
396
330
395
100
AcDbDictionary
280
     1
  3
ACAD_DIMASSOC
360
397
  0
DICTIONARY
  5
39A
330
399
100
AcDbDictionary
280
     1
  3
ACAD_DIMASSOC
360
39B
  0
DICTIONARY
  5
39D
330
39C
100
AcDbDictionary
280
     1
  3
ACAD_DIMASSOC
360
39E
  0
DICTIONARY
  5
3A0
330
39F
100
AcDbDictionary
280
     1
  3
ACAD_DIMASSOC
360
3A1
  0
DICTIONARY
  5
C33
330
C25
100
AcDbDictionary
280
     1
  3
ACAD_DIMASSOC
360
C3E
  0
DICTIONARY
  5
C4D
330
C3F
100
AcDbDictionary
280
     1
  3
ACAD_DIMASSOC
360
C58
  0
DICTIONARY
  5
CC2
330
CB4
100
AcDbDictionary
280
     1
  3
ACAD_DIMASSOC
360
CCD
  0
DICTIONARY
  5
CDC
330
CCE
100
AcDbDictionary
280
     1
  3
ACAD_DIMASSOC
360
CE7
  0
DICTIONARY
  5
CF6
330
CE8
100
AcDbDictionary
280
     1
  3
ACAD_DIMASSOC
360
D01
  0
DICTIONARY
  5
D
102
{ACAD_REACTORS
330
C
102
}
330
C
100
AcDbDictionary
  0
DICTIONARY
  5
1A
102
{ACAD_REACTORS
330
C
102
}
330
C
100
AcDbDictionary
  0
DICTIONARY
  5
17
102
{ACAD_REACTORS
330
C
102
}
330
C
100
AcDbDictionary
  3
STANDARD
350
18
  0
DICTIONARY
  5
19
102
{ACAD_REACTORS
330
C
102
}
330
C
100
AcDbDictionary
  0
ACDBDICTIONARYWDFLT
  5
E
102
{ACAD_REACTORS
330
C
102
}
330
C
100
AcDbDictionary
281
     1
  3
Normal
350
F
100
AcDbDictionaryWithDefault
340
F
  0
DICTIONARY
  5
DAF
102
{ACAD_REACTORS
330
C
102
}
330
C
100
AcDbDictionary
  3
CEPSNTYPE
350
DB9
  3
FINGERPRINTGUID
350
DBA
  3
HYPERLINKBASE
350
DB2
  3
INSUNITS
350
DB8
  3
LAYOUTDICT
350
DB4
  3
LWETCUNION
350
DB7
  3
PLOTSETDICT
350
DB5
  3
PLOTSTYLNAMDICT
350
DB6
  3
PSVPSCALE
350
DBC
  3
PUCSBASE
350
DBF
  3
PUCSORGBACK
350
DC5
  3
PUCSORGBOTTOM
350
DC1
  3
PUCSORGFRONT
350
DC4
  3
PUCSORGLEFT
350
DC2
  3
PUCSORGRIGHT
350
DC3
  3
PUCSORGTOP
350
DC0
  3
PUCSORTHOREF
350
DBD
  3
PUCSORTHOVIEW
350
DBE
  3
STYLESHEET
350
DB3
  3
TSTACKALIGN
350
DB0
  3
TSTACKSIZE
350
DB1
  3
UCSBASE
350
DC8
  3
UCSORGBACK
350
DCE
  3
UCSORGBOTTOM
350
DCA
  3
UCSORGFRONT
350
DCD
  3
UCSORGLEFT
350
DCB
  3
UCSORGRIGHT
350
DCC
  3
UCSORGTOP
350
DC9
  3
UCSORTHOREF
350
DC6
  3
UCSORTHOVIEW
350
DC7
  3
VERSIONGUID
350
DBB
  0
DICTIONARY
  5
319
102
{ACAD_REACTORS
330
C
102
}
330
C
100
AcDbDictionary
  3
DIMASSOC
350
31B
  3
HIDETEXT
350
31A
  0
XRECORD
  5
DD0
102
{ACAD_REACTORS
330
4C7
102
}
330
4C7
100
AcDbXrecord
340
1F
  0
XRECORD
  5
DCF
102
{ACAD_REACTORS
330
4C9
102
}
330
4C9
100
AcDbXrecord
340
1B
  0
DIMASSOC
  5
397
102
{ACAD_REACTORS
330
396
102
}
330
396
100
AcDbDimAssoc
330
395
 90
        3
 70
     0
 71
     0
  1
AcDbOsnapPointRef
 72
    13
331
3F8
 73
     2
 91
        0
 40
0.0
 10
19.28582439543604
 20
10.67601755823128
 30
0.0
 75
     0
  1
AcDbOsnapPointRef
 72
     1
331
3F8
 73
     2
 91
        0
 40
1.0
 10
19.28582439543604
 20
5.621017558231287
 30
0.0
 75
     0
  0
DIMASSOC
  5
39B
102
{ACAD_REACTORS
330
39A
102
}
330
39A
100
AcDbDimAssoc
330
399
 90
        3
 70
     0
 71
     0
  1
AcDbOsnapPointRef
 72
     1
331
3FD
 73
     2
 91
        0
 40
1.0
 10
9.417177731381014
 20
10.14541087664236
 30
0.0
 75
     0
  1
AcDbOsnapPointRef
 72
    13
331
3FE
 73
     2
 91
        0
 40
0.0
 10
9.417177731381016
 20
6.265410876642356
 30
0.0
 75
     0
  0
DIMASSOC
  5
39E
102
{ACAD_REACTORS
330
39D
102
}
330
39D
100
AcDbDimAssoc
330
39C
 90
        3
 70
     0
 71
     0
  1
AcDbOsnapPointRef
 72
     3
331
3D7
 73
     2
 91
        0
 40
3.732533852875301
 10
10.17643363527683
 20
5.976616024477518
 30
0.0
 75
     0
  1
AcDbOsnapPointRef
 72
     3
331
3B8
 73
     2
 91
        0
 40
3.732533852875301
 10
15.67643363527683
 20
5.976616024477518
 30
0.0
 75
     0
  0
DIMASSOC
  5
3A1
102
{ACAD_REACTORS
330
3A0
102
}
330
3A0
100
AcDbDimAssoc
330
39F
 90
        3
 70
     0
 71
     0
  1
AcDbOsnapPointRef
 72
     1
331
3FC
 73
     2
 91
        0
 40
1.0
 10
9.417177731381014
 20
10.64541087664235
 30
0.0
 75
     0
  1
AcDbOsnapPointRef
 72
    13
331
3FC
 73
     2
 91
        0
 40
0.0
 10
16.44717773138101
 20
10.64541087664235
 30
0.0
 75
     0
  0
DIMASSOC
  5
C3E
102
{ACAD_REACTORS
330
C33
102
}
330
C33
100
AcDbDimAssoc
330
C25
 90
        3
 70
     0
 71
     0
  1
AcDbOsnapPointRef
 72
    13
331
BDC
331
B31
 73
     2
 91
        0
 40
0.0
 10
315.053290466643
 20
83.04438103900304
 30
0.0
 75
     0
  1
AcDbOsnapPointRef
 72
     1
331
BDC
331
B31
 73
     2
 91
        0
 40
1.0
 10
315.053290466643
 20
26.65638103900303
 30
0.0
 75
     0
  0
DIMASSOC
  5
C58
102
{ACAD_REACTORS
330
C4D
102
}
330
C4D
100
AcDbDimAssoc
330
C3F
 90
        3
 70
     0
 71
     0
  1
AcDbOsnapPointRef
 72
     1
331
BDC
331
B31
 73
     2
 91
        0
 40
1.0
 10
315.053290466643
 20
26.65638103900303
 30
0.0
 75
     0
  1
AcDbOsnapPointRef
 72
     1
331
BDC
331
B27
 73
     2
 91
        0
 40
1.0
 10
356.963290466643
 20
26.65638103900303
 30
0.0
 75
     0
  0
DIMASSOC
  5
CCD
102
{ACAD_REACTORS
330
CC2
102
}
330
CC2
100
AcDbDimAssoc
330
CB4
 90
        3
 70
     0
 71
     0
  1
AcDbOsnapPointRef
 72
    13
331
C99
331
C64
 73
     2
 91
        0
 40
0.0
 10
402.6180257336998
 20
117.5174108766424
 30
0.0
 75
     0
  1
AcDbOsnapPointRef
 72
     1
331
C99
331
C63
 73
     2
 91
        0
 40
1.0
 10
581.1800257336999
 20
117.5174108766424
 30
0.0
 75
     0
  0
DIMASSOC
  5
CE7
102
{ACAD_REACTORS
330
CDC
102
}
330
CDC
100
AcDbDimAssoc
330
CCE
 90
        3
 70
     0
 71
     0
  1
AcDbOsnapPointRef
 72
    13
331
C99
331
C64
 73
     2
 91
        0
 40
0.0
 10
402.6180257336998
 20
117.5174108766424
 30
0.0
 75
     0
  1
AcDbOsnapPointRef
 72
     1
331
C99
331
C64
 73
     2
 91
        0
 40
1.0
 10
402.6180257336998
 20
-6.434589123357625
 30
0.0
 75
     0
  0
DIMASSOC
  5
D01
102
{ACAD_REACTORS
330
CF6
102
}
330
CF6
100
AcDbDimAssoc
330
CE8
 90
        3
 70
     0
 71
     0
  1
AcDbOsnapPointRef
 72
     5
331
C99
331
C6B
 73
     2
 91
        0
 40
4.712388980384689
 10
421.9031256926536
 20
-4.625978368344493
 30
0.0
 75
     0
  1
AcDbOsnapPointRef
 72
     5
331
C99
331
C7A
 73
     2
 91
        0
 40
4.712388980384689
 10
561.6031256926537
 20
-4.625978368344493
 30
0.0
 75
     0
  0
MLINESTYLE
  5
18
102
{ACAD_REACTORS
330
17
102
}
330
17
100
AcDbMlineStyle
  2
STANDARD
 70
     0
  3

 62
   256
 51
90.0
 52
90.0
 71
     2
 49
0.5
 62
   256
  6
BYLAYER
 49
-0.5
 62
   256
  6
BYLAYER
  0
ACDBPLACEHOLDER
  5
F
102
{ACAD_REACTORS
330
E
102
}
330
E
100
AcDbPlaceHolder
280
     0
  0
XRECORD
  5
DB9
102
{ACAD_REACTORS
330
DAF
102
}
330
DAF
100
AcDbXrecord
 90
        0
  0
XRECORD
  5
DBA
102
{ACAD_REACTORS
330
DAF
102
}
330
DAF
100
AcDbXrecord
  1
{D19C8F4D-EC36-4A82-888D-975B1E0A7520}
  0
XRECORD
  5
DB2
102
{ACAD_REACTORS
330
DAF
102
}
330
DAF
100
AcDbXrecord
  1

  0
XRECORD
  5
DB8
102
{ACAD_REACTORS
330
DAF
102
}
330
DAF
100
AcDbXrecord
 90
        4
  0
XRECORD
  5
DB4
102
{ACAD_REACTORS
330
DAF
102
}
330
DAF
100
AcDbXrecord
340
1A
  0
XRECORD
  5
DB7
102
{ACAD_REACTORS
330
DAF
102
}
330
DAF
100
AcDbXrecord
 90
    10781
  0
XRECORD
  5
DB5
102
{ACAD_REACTORS
330
DAF
102
}
330
DAF
100
AcDbXrecord
340
19
  0
XRECORD
  5
DB6
102
{ACAD_REACTORS
330
DAF
102
}
330
DAF
100
AcDbXrecord
340
E
  0
XRECORD
  5
DBC
102
{ACAD_REACTORS
330
DAF
102
}
330
DAF
100
AcDbXrecord
 40
0.0
  0
XRECORD
  5
DBF
102
{ACAD_REACTORS
330
DAF
102
}
330
DAF
100
AcDbXrecord
340
0
  0
XRECORD
  5
DC5
102
{ACAD_REACTORS
330
DAF
102
}
330
DAF
100
AcDbXrecord
 10
0.0
 20
0.0
 30
0.0
  0
XRECORD
  5
DC1
102
{ACAD_REACTORS
330
DAF
102
}
330
DAF
100
AcDbXrecord
 10
0.0
 20
0.0
 30
0.0
  0
XRECORD
  5
DC4
102
{ACAD_REACTORS
330
DAF
102
}
330
DAF
100
AcDbXrecord
 10
0.0
 20
0.0
 30
0.0
  0
XRECORD
  5
DC2
102
{ACAD_REACTORS
330
DAF
102
}
330
DAF
100
AcDbXrecord
 10
0.0
 20
0.0
 30
0.0
  0
XRECORD
  5
DC3
102
{ACAD_REACTORS
330
DAF
102
}
330
DAF
100
AcDbXrecord
 10
0.0
 20
0.0
 30
0.0
  0
XRECORD
  5
DC0
102
{ACAD_REACTORS
330
DAF
102
}
330
DAF
100
AcDbXrecord
 10
0.0
 20
0.0
 30
0.0
  0
XRECORD
  5
DBD
102
{ACAD_REACTORS
330
DAF
102
}
330
DAF
100
AcDbXrecord
340
0
  0
XRECORD
  5
DBE
102
{ACAD_REACTORS
330
DAF
102
}
330
DAF
100
AcDbXrecord
 70
     0
  0
XRECORD
  5
DB3
102
{ACAD_REACTORS
330
DAF
102
}
330
DAF
100
AcDbXrecord
  1

  0
XRECORD
  5
DB0
102
{ACAD_REACTORS
330
DAF
102
}
330
DAF
100
AcDbXrecord
 90
        1
  0
XRECORD
  5
DB1
102
{ACAD_REACTORS
330
DAF
102
}
330
DAF
100
AcDbXrecord
 90
       70
  0
XRECORD
  5
DC8
102
{ACAD_REACTORS
330
DAF
102
}
330
DAF
100
AcDbXrecord
340
0
  0
XRECORD
  5
DCE
102
{ACAD_REACTORS
330
DAF
102
}
330
DAF
100
AcDbXrecord
 10
0.0
 20
0.0
 30
0.0
  0
XRECORD
  5
DCA
102
{ACAD_REACTORS
330
DAF
102
}
330
DAF
100
AcDbXrecord
 10
0.0
 20
0.0
 30
0.0
  0
XRECORD
  5
DCD
102
{ACAD_REACTORS
330
DAF
102
}
330
DAF
100
AcDbXrecord
 10
0.0
 20
0.0
 30
0.0
  0
XRECORD
  5
DCB
102
{ACAD_REACTORS
330
DAF
102
}
330
DAF
100
AcDbXrecord
 10
0.0
 20
0.0
 30
0.0
  0
XRECORD
  5
DCC
102
{ACAD_REACTORS
330
DAF
102
}
330
DAF
100
AcDbXrecord
 10
0.0
 20
0.0
 30
0.0
  0
XRECORD
  5
DC9
102
{ACAD_REACTORS
330
DAF
102
}
330
DAF
100
AcDbXrecord
 10
0.0
 20
0.0
 30
0.0
  0
XRECORD
  5
DC6
102
{ACAD_REACTORS
330
DAF
102
}
330
DAF
100
AcDbXrecord
340
0
  0
XRECORD
  5
DC7
102
{ACAD_REACTORS
330
DAF
102
}
330
DAF
100
AcDbXrecord
 70
     0
  0
XRECORD
  5
DBB
102
{ACAD_REACTORS
330
DAF
102
}
330
DAF
100
AcDbXrecord
  1
{15DAF3D6-61F9-42AB-A546-3A92648761C5}
  0
DICTIONARYVAR
  5
31B
102
{ACAD_REACTORS
330
319
102
}
330
319
100
DictionaryVariables
280
     0
  1
2
  0
DICTIONARYVAR
  5
31A
102
{ACAD_REACTORS
330
319
102
}
330
319
100
DictionaryVariables
280
     0
  1
1
  0
ENDSEC
  0
EOF
